<?xml version="1.0" standalone="no"?>
<!DOCTYPE svg PUBLIC "-//W3C//DTD SVG 1.1//EN" "http://www.w3.org/Graphics/SVG/1.1/DTD/svg11.dtd" >
<svg xmlns="http://www.w3.org/2000/svg">
<metadata></metadata>
<defs>
<font id="alwynmedium" horiz-adv-x="1187" >
<font-face units-per-em="2048" ascent="1638" descent="-410" />
<missing-glyph horiz-adv-x="430" />
<glyph horiz-adv-x="2048" />
<glyph horiz-adv-x="2048" />
<glyph unicode="&#xd;" horiz-adv-x="692" />
<glyph unicode=" "  horiz-adv-x="430" />
<glyph unicode="&#x09;" horiz-adv-x="430" />
<glyph unicode="&#xa0;" horiz-adv-x="430" />
<glyph unicode="!" horiz-adv-x="731" d="M225 133q0 61 44 106.5t106 45.5q61 0 106 -45.5t45 -106.5t-45 -105t-106 -44t-105.5 44t-44.5 105zM250 1458h266l-39 -936l-190 -33z" />
<glyph unicode="&#x22;" horiz-adv-x="894" d="M199 895v522h198v-522h-198zM498 895v522h198v-522h-198z" />
<glyph unicode="#" horiz-adv-x="1359" d="M195 596v188h192v160h-192v189h192v286h205v-286h176v286h205v-286h192v-189h-192v-160h192v-188h-192v-287h-205v287h-176v-287h-205v287h-192zM592 784h176v160h-176v-160z" />
<glyph unicode="$" d="M150 61l47 203q98 -29 299 -71l41 469q-176 76 -246 139q-117 104 -117 276q0 178 121 284.5t313 113.5l8 94l113 -8l-8 -93q111 -12 283 -69l-60 -191q-137 47 -242 58l-36 -422q182 -78 258 -150q125 -115 125 -303q0 -182 -126 -292.5t-333 -114.5l-8 -97l-111 11 l6 92q-106 12 -327 71zM401 1077q0 -109 156 -186l33 377q-188 -20 -189 -191zM608 188q213 14 213 203q0 137 -176 223z" />
<glyph unicode="%" horiz-adv-x="1880" d="M184 1075q0 150 91.5 254.5t240.5 104.5q150 0 240 -104.5t90 -254.5t-90 -254t-240 -104t-241 104.5t-91 253.5zM326 1075q0 -98 49 -166q53 -74 141 -73q86 0 141 73q50 68 50 166q0 96 -50 164q-55 74 -141 74q-88 0 -141 -74q-49 -66 -49 -164zM662 0l425 1417h132 l-428 -1417h-129zM1034 342q0 150 90 254t240 104t244 -106q88 -102 88 -252t-88 -252q-94 -106 -244 -106t-240 104.5t-90 253.5zM1174 342q0 -98 49 -166q55 -74 141 -74t141 74q49 68 49 166t-49 166q-55 74 -141 74t-138 -71t-52 -169z" />
<glyph unicode="&#x26;" horiz-adv-x="1425" d="M205 426q0 240 225 346v6q-182 111 -182 295q0 182 123 292t319 110q88 0 264 -33l-34 -199q-147 27 -230 27q-225 0 -225 -197q0 -84 49 -145q61 -78 174 -78h180l35 197h158v-197h199v-158l-199 -24v-617q-193 -68 -399 -67q-207 0 -334 131q-123 125 -123 311z M426 426q0 -94 55 -160q70 -78 199 -78q102 1 182 19v461h-180q-133 0 -201 -76q-55 -66 -55 -166z" />
<glyph unicode="'" horiz-adv-x="595" d="M199 895v522h198v-522h-198z" />
<glyph unicode="(" horiz-adv-x="755" d="M174 51v1106q0 428 449 428v-188q-131 0 -187.5 -55.5t-56.5 -184.5v-1106q0 -129 56.5 -186.5t187.5 -57.5v-186q-449 0 -449 430z" />
<glyph unicode=")" horiz-adv-x="755" d="M174 -193q131 0 187.5 57.5t56.5 186.5v1106q0 129 -56.5 184.5t-187.5 55.5v188q449 0 449 -428v-1106q0 -430 -449 -430v186z" />
<glyph unicode="*" horiz-adv-x="1171" d="M188 883l246 131l-246 127l86 149l238 -147l-14 276h174l-10 -278l233 149l88 -149l-246 -131l246 -127l-88 -152l-236 150l13 -279l-174 2l10 277l-234 -150z" />
<glyph unicode="+" horiz-adv-x="1228" d="M188 444v209h322v340h207v-340h323v-209h-323v-342h-207v342h-322z" />
<glyph unicode="," horiz-adv-x="532" d="M102 -233l68 415q27 100 129 101q53 0 92 -40t39 -96q0 -16 -4 -34l-150 -394z" />
<glyph unicode="-" horiz-adv-x="948" d="M133 436v221h682v-221h-682z" />
<glyph unicode="." horiz-adv-x="493" d="M102 131q0 61 43 105.5t101 44.5q59 0 102 -44.5t43 -105.5q0 -59 -43 -103t-102 -44q-57 0 -100.5 44t-43.5 103z" />
<glyph unicode="/" horiz-adv-x="761" d="M76 0l440 1612h170l-444 -1612h-166z" />
<glyph unicode="0" d="M111 514v391q0 231 130 380t353 149q225 0 358 -156q125 -145 125 -373v-391q0 -231 -129 -380.5t-354 -149.5q-223 0 -356 155q-127 147 -127 375zM332 514q0 -135 55 -221q68 -104 207 -105q137 0 207 105q55 86 55 221v391q0 135 -55 221q-70 104 -207 105 q-139 0 -207 -105q-55 -86 -55 -221v-391z" />
<glyph unicode="1" d="M166 1249l405 168h170v-1214l273 -15v-188h-801v205h309v979l-276 -117z" />
<glyph unicode="2" d="M172 0v170q0 322 279 516q72 47 141 94q82 57 131 109q59 61 59 155q0 76 -55 127q-63 59 -176 60q-104 0 -287 -78l-76 182q211 98 365 99q190 0 319 -111t129 -279q0 -188 -153 -329q-145 -109 -289 -217q-160 -131 -166 -293h615v-162q0 -43 -43 -43h-793z" />
<glyph unicode="3" d="M172 59l53 193q174 -63 285 -64q135 0 206.5 63.5t71.5 164.5q0 119 -77 186q-70 61 -181 62h-124v184h106q113 0 176.5 56.5t63.5 137.5q0 80 -56 129q-66 57 -184 58q-94 0 -254 -60l-74 189q213 76 330 76q205 0 328 -101q131 -106 131 -291q0 -172 -187 -282v-4 q226 -123 226 -340q0 -184 -129 -305q-137 -127 -373 -127q-156 0 -338 75z" />
<glyph unicode="4" d="M113 524q0 25 4 51l131 842h209l-140 -874q-4 -27 25 -27h297v666l219 -33v-633h270l-49 -201h-221v-315h-219v315h-297q-82 0 -145 41q-84 55 -84 168z" />
<glyph unicode="5" d="M135 74l55 194q223 -80 336 -80q141 0 222 84q74 78 73 197q0 258 -250 258q-133 0 -282 -63l-82 135v618h768l-14 -205h-543v-311q82 16 153 17q219 0 346 -122t127 -329q0 -217 -149.5 -350t-374.5 -133q-141 0 -385 90z" />
<glyph unicode="6" d="M133 461v495q0 205 123 334q133 143 371 144q125 0 331 -72l-49 -195q-197 63 -282 64q-145 0 -215 -88q-57 -72 -58 -187v-90q115 68 252 68q199 0 320 -119q129 -127 129 -354q0 -223 -135 -355q-129 -123 -326 -122q-197 0 -324 122q-137 133 -137 355zM354 459 q0 -121 58 -193q63 -78 182 -78t182 78q58 72 58 195q0 127 -62.5 204.5t-183.5 77.5q-129 0 -234 -65v-219z" />
<glyph unicode="7" d="M162 1214v203h848l55 -153l-451 -1264h-233l428 1214h-647z" />
<glyph unicode="8" d="M123 420q0 227 186 330q-145 102 -145 282q0 186 137 299q123 102 293 103q172 0 295 -103q135 -113 135 -299q0 -178 -145 -280q186 -105 186 -332q0 -213 -152 -332q-131 -104 -319 -104q-186 0 -318 104q-154 119 -153 332zM342 420q0 -104 78 -170q72 -61 174 -62 q102 0 177 64t75 168q0 102 -73 161.5t-179 59.5t-176 -57q-76 -61 -76 -164zM385 1032q0 -88 63.5 -144.5t145.5 -56.5t145.5 57.5t63.5 143.5q0 88 -60.5 143.5t-148.5 55.5t-148.5 -55.5t-60.5 -143.5z" />
<glyph unicode="9" d="M133 956q0 223 135 355q129 123 326 123t324 -123q137 -133 137 -355v-495q0 -205 -123 -334q-133 -143 -371 -143q-125 0 -332 71l50 195q197 -63 282 -64q145 0 215 88q57 72 58 187v90q-115 -68 -252 -68q-199 0 -320 119q-129 127 -129 354zM354 956 q0 -127 62.5 -204.5t183.5 -77.5q130 -1 234 65v219q0 121 -58 193q-63 78 -182 78t-179.5 -75t-60.5 -198z" />
<glyph unicode=":" horiz-adv-x="493" d="M102 131q0 61 43 105.5t101 44.5q59 0 102 -44.5t43 -105.5q0 -59 -43 -103t-102 -44q-57 0 -100.5 44t-43.5 103zM102 799q0 61 43 105t101 44q59 0 102 -44t43 -105q0 -59 -43 -103.5t-102 -44.5q-57 0 -100.5 44t-43.5 104z" />
<glyph unicode=";" horiz-adv-x="544" d="M102 -233l68 415q27 100 129 101q53 0 92 -40t39 -96q0 -16 -4 -34l-150 -394zM141 799q0 63 44 107t106 44q61 0 106 -44t45 -107q0 -59 -45 -104.5t-106 -45.5t-105.5 45t-44.5 105z" />
<glyph unicode="&#x3c;" horiz-adv-x="1261" d="M188 479v139l795 478l90 -176l-627 -371l627 -373l-90 -176z" />
<glyph unicode="=" horiz-adv-x="1222" d="M188 260v211h846v-211h-846zM188 623v211h846v-211h-846z" />
<glyph unicode="&#x3e;" horiz-adv-x="1261" d="M188 176l627 371l-627 373l91 176l794 -480v-139l-794 -477z" />
<glyph unicode="?" horiz-adv-x="1107" d="M205 1366q176 109 334 109q168 0 274 -103q100 -98 100 -237q0 -86 -59 -185q-66 -82 -129 -164q-90 -127 -90 -272l-221 -25q0 207 71 336q29 51 131 160q72 74 72 150q0 55 -39 96t-110 41q-102 0 -250 -88zM375 133q0 61 44 106.5t105 45.5t106.5 -45.5t45.5 -106.5 t-45 -105t-107 -44q-61 0 -105 44t-44 105z" />
<glyph unicode="@" horiz-adv-x="1773" d="M188 711q0 322 205 528q199 199 494 199q297 0 493 -199q205 -204 205 -528q0 -217 -104 -402h-396l-8 43q-119 -55 -207 -55q-141 0 -226 89t-85 235v182q0 152 84 236.5t227 84.5q76 0 185 -41v25h135v-674h207q55 127 55 277q0 268 -166 432q-158 156 -399 155 q-242 0 -398 -155q-164 -164 -163 -432q0 -272 163 -435q156 -154 398 -153q178 0 278 41l23 -135q-121 -45 -301 -45q-295 0 -494 198q-205 205 -205 529zM694 621q0 -201 176 -201q95 0 185 43v502q-88 37 -185 36q-176 0 -176 -198v-182z" />
<glyph unicode="A" horiz-adv-x="1290" d="M35 0l334 1231q66 244 272 244q211 0 277 -244l333 -1231h-225l-113 420h-540l-113 -420h-225zM426 612h434l-151 559q-27 98 -68 99q-37 0 -63 -99z" />
<glyph unicode="B" horiz-adv-x="1183" d="M156 0v1380q252 94 442 95q201 0 319.5 -120t118.5 -296t-188 -277v-4q244 -113 244 -344q0 -186 -111 -303q-123 -131 -340 -131h-485zM375 203h266q227 0 227 231q0 90 -51 154q-56 71 -161 71h-3h-278v-456zM375 862h235q92 0 152 64q53 57 53 133q0 90 -47 145 q-57 68 -170 68q-104 0 -223 -33v-377z" />
<glyph unicode="C" horiz-adv-x="1189" d="M123 520v416q0 238 129 381q143 158 412 158q172 0 421 -70l-49 -203q-207 68 -374 68q-319 0 -320 -355v-374q0 -354 320 -355q158 0 372 72l53 -197q-255 -77 -419 -77h-4q-268 0 -412 157q-129 141 -129 379z" />
<glyph unicode="D" horiz-adv-x="1282" d="M156 0v1458h491q506 0 506 -491v-475q0 -492 -504 -492h-493zM375 203h274q168 0 234 90q51 72 51 219v432q0 150 -51 219q-66 92 -234 92h-274v-1052z" />
<glyph unicode="E" horiz-adv-x="1073" d="M156 383v690q0 178 106.5 281.5t306.5 103.5h396v-203h-396q-115 0 -157 -55q-35 -45 -35 -147v-207h561v-205h-561v-238q0 -102 35 -145q43 -55 157 -55h404v-170q0 -33 -31 -33h-373q-201 0 -309 106q-104 100 -104 277z" />
<glyph unicode="F" horiz-adv-x="1062" d="M156 0v1458h807v-203h-588v-428h532v-204h-532v-623h-219z" />
<glyph unicode="G" horiz-adv-x="1239" d="M123 520v416q0 244 131 383q145 156 438 156q166 0 395 -70l-49 -195q-199 59 -346 60q-350 0 -350 -355v-376q0 -352 332 -353q113 0 239 31v500l205 18v-663q-279 -88 -444 -88q-262 0 -410 153q-141 145 -141 383z" />
<glyph unicode="H" horiz-adv-x="1325" d="M156 0v1458h221v-612h567v612h219v-1425q0 -33 -30 -33h-189v641h-567v-641h-221z" />
<glyph unicode="I" horiz-adv-x="507" d="M143 0v1458h222v-1425q0 -33 -31 -33h-191z" />
<glyph unicode="J" horiz-adv-x="980" d="M57 49l49 201q197 -66 302 -66q238 0 237 281v991h219v-991q0 -219 -104 -342q-117 -141 -352 -141q-127 0 -351 67z" />
<glyph unicode="K" horiz-adv-x="1204" d="M156 0v1458h221v-612l174 12l268 600h240l-285 -629q113 -51 164 -204l207 -625h-230l-184 561q-18 55 -39 74q-26 25 -81 25q-9 0 -19 -1l-215 -12v-614q0 -33 -31 -33h-190z" />
<glyph unicode="L" horiz-adv-x="1112" d="M156 0v1458h221v-1253h633v-172q0 -33 -31 -33h-823z" />
<glyph unicode="M" horiz-adv-x="1753" d="M82 0l188 1458h267q51 -180 309 -1096q12 -45 22 -45q8 0 21 45l309 1096h266l187 -1458h-226l-98 793l-29 317l-47 -262l-153 -547q-57 -205 -230 -205q-172 0 -229 203l-156 549l-49 268l-26 -317l-99 -799h-227z" />
<glyph unicode="N" horiz-adv-x="1316" d="M156 0v1458h159q115 0 177 -61q45 -43 104 -176l272 -607l82 -229l-14 229v844h219v-1458h-254l-504 1130q-8 14 -22 41v-1171h-219z" />
<glyph unicode="O" horiz-adv-x="1333" d="M123 557v346q0 244 145 404q152 168 400 168q246 0 399 -175q143 -162 143 -397v-346q0 -244 -145 -403q-152 -170 -397 -170q-248 0 -402 172q-143 162 -143 401zM342 575q0 -156 74 -262q86 -127 252 -127q160 0 247 127q76 108 76 262v310q0 154 -76 260 q-88 127 -247 127q-166 0 -252 -127q-74 -104 -74 -260v-310z" />
<glyph unicode="P" horiz-adv-x="1097" d="M156 0v1458h413q221 0 353 -139q122 -131 122 -332q0 -199 -122 -328q-131 -139 -353 -139h-194v-520h-219zM375 721h194q129 0 197 88q55 72 55 178q0 111 -55 182q-68 86 -197 86h-194v-534z" />
<glyph unicode="Q" horiz-adv-x="1333" d="M123 555v346q0 246 148.5 409t396.5 163q246 0 399 -173q143 -164 143 -399v-346q0 -182 -89 -327.5t-244 -207.5l139 -385l-160 -59q-6 -2 -10 -2q-20 0 -27 20l-141 388h-10q-248 0 -402 174q-143 162 -143 399zM344 573q0 -156 72 -260q86 -127 252 -127 q160 0 247 127q76 106 76 260v310q0 154 -76 260q-88 127 -247 127q-166 0 -252 -127q-72 -104 -72 -260v-310z" />
<glyph unicode="R" horiz-adv-x="1169" d="M156 0v1391q293 84 456 84q213 0 338 -146q115 -131 115 -330q0 -129 -66 -233q-72 -115 -204 -170l108 -219l154 -377h-246l-221 553h-213v-553h-221zM377 743h217q127 0 192 82q56 70 56 174q0 113 -54 187q-61 86 -176 86q-111 0 -235 -33v-496z" />
<glyph unicode="S" horiz-adv-x="1011" d="M47 61l47 203q94 -25 189 -51q109 -25 192 -25q125 0 189 62q55 53 55 141q0 133 -168 219q-156 76 -311 150q-168 115 -168 317q0 184 131 293q125 104 327 105q137 0 373 -76l-61 -191q-182 61 -312 62q-117 0 -178 -58q-53 -51 -53 -135q0 -111 168 -190 q283 -135 311 -156q168 -123 168 -340q0 -186 -129 -296.5t-342 -110.5q-139 0 -428 77z" />
<glyph unicode="T" horiz-adv-x="1144" d="M82 1255v203h977v-203h-379v-1255h-221v1255h-377z" />
<glyph unicode="U" horiz-adv-x="1312" d="M133 553v905h219v-942q0 -135 74 -227q84 -102 229 -103q143 0 226 103q74 92 73 227v942h220v-905q0 -268 -136.5 -418.5t-382.5 -150.5t-384 150.5t-138 418.5z" />
<glyph unicode="V" horiz-adv-x="1280" d="M41 1458h229l369 -1145l78 250l293 895h229l-483 -1458h-236z" />
<glyph unicode="W" horiz-adv-x="1798" d="M72 1458h225l158 -782l43 -328l39 270l122 535q47 209 230 209q178 0 227 -209l125 -535l37 -268l45 326l156 782h225l-283 -1458h-266l-264 1133q-2 8 -4 8q-2 -2 -4 -8l-262 -1133h-265z" />
<glyph unicode="X" horiz-adv-x="1294" d="M61 0l459 760l-409 698h264l278 -514l279 514h264l-410 -698l459 -760h-262l-330 580l-329 -580h-263z" />
<glyph unicode="Y" d="M72 1458h221l80 -418q29 -147 63 -200q49 -78 156 -78q109 0 160 78q37 55 63 200l78 418h223l-86 -457q-31 -164 -90 -256q-82 -129 -238 -170v-575h-223v575q-154 41 -233 170q-57 92 -88 256z" />
<glyph unicode="Z" horiz-adv-x="1122" d="M82 180l522 871l139 204h-616l-18 203h880l33 -172l-508 -848l-162 -235h684v-203h-932z" />
<glyph unicode="[" horiz-adv-x="733" d="M174 -379v1964h426v-184h-221v-1594h221v-186h-426z" />
<glyph unicode="\" horiz-adv-x="761" d="M76 1612h170l440 -1612h-166z" />
<glyph unicode="]" horiz-adv-x="733" d="M174 -193h221v1594h-221v184h426v-1964h-426v186z" />
<glyph unicode="^" horiz-adv-x="1292" d="M184 659l379 758h170l375 -758h-215l-246 566l-248 -566h-215z" />
<glyph unicode="_" horiz-adv-x="1050" d="M102 -102h846v-201h-846v201z" />
<glyph unicode="`" horiz-adv-x="862" d="M143 1434l78 170l498 -240l-64 -143z" />
<glyph unicode="a" horiz-adv-x="995" d="M92 328q0 164 121 247q104 70 272 70h195v57q0 115 -40 167.5t-134 52.5q-141 0 -297 -50l-51 189q190 61 348 61q186 0 288.5 -106.5t102.5 -284.5v-731h-182l-10 68q-131 -84 -250 -84q-158 0 -260.5 93t-102.5 251zM309 334q0 -72 41 -121t111 -49q106 0 219 43v274 h-182q-92 0 -140.5 -43t-48.5 -104z" />
<glyph unicode="b" horiz-adv-x="1120" d="M143 0v1532l217 16v-262q0 -61 -8 -231q150 67 255 67h3q176 0 287 -118.5t111 -294.5v-314q0 -174 -111 -292.5t-287 -118.5q-102 0 -274 82l-10 -66h-183zM360 236q111 -51 232 -52q96 0 147.5 63.5t51.5 172.5v260q0 242 -199 242q-94 0 -232 -48v-638z" />
<glyph unicode="c" horiz-adv-x="991" d="M113 430v246q0 180 114 307q127 139 336 139q139 0 322 -59l-51 -186q-178 45 -271 45q-121 0 -182 -84q-51 -72 -51 -181v-211q0 -109 51 -178q61 -84 182 -84q111 0 281 43l51 -184q-180 -59 -332 -59q-209 0 -336 139q-115 127 -114 307z" />
<glyph unicode="d" horiz-adv-x="1120" d="M113 395v314q0 176 110.5 294.5t286.5 118.5q109 0 258 -67q-8 100 -8 231v246h217v-1532h-182l-11 66q-172 -82 -274 -82q-176 0 -286.5 118.5t-110.5 292.5zM330 420q0 -109 51 -172.5t147 -63.5q126 1 232 52v638q-137 47 -232 48q-199 0 -198 -242v-260z" />
<glyph unicode="e" horiz-adv-x="1073" d="M113 430v244q0 184 114 311q121 137 316 137t317 -139q113 -129 113 -309v-144q0 -45 -43 -45h-600v-55q0 -98 53 -164q66 -82 195 -82q109 0 313 56l47 -189q-196 -67 -355 -67h-5q-219 0 -349 139q-117 125 -116 307zM330 651h424q-4 270 -211 271q-205 0 -213 -271z " />
<glyph unicode="f" horiz-adv-x="788" d="M51 950v156h170v90q0 162 91 257t257 95h6q94 0 181 -32l-35 -191q-84 23 -152 23q-70 0 -100.5 -34t-30.5 -126v-82h267v-168h-267v-905q0 -33 -30 -33h-187v940z" />
<glyph unicode="g" horiz-adv-x="1112" d="M119 414v297q0 174 110.5 292.5t286.5 118.5q109 0 272 -80l11 64h180v-1108q0 -170 -103.5 -276.5t-271.5 -106.5h-274l-27 184h305q70 0 112 53.5t42 129.5v86q-150 -68 -246 -68q-176 0 -286.5 120t-110.5 294zM336 442q0 -241 197 -241h2q84 0 227 49v618 q-135 53 -227 54q-96 0 -147.5 -63.5t-51.5 -172.5v-244z" />
<glyph unicode="h" horiz-adv-x="1103" d="M143 0v1532h217v-244q0 -131 -8 -237q162 71 259 71h3q170 0 273 -118q94 -113 94 -289v-682q0 -33 -31 -33h-186v694q0 227 -166 228q-94 0 -238 -50v-872h-217z" />
<glyph unicode="i" horiz-adv-x="548" d="M61 950v156h345v-1073q0 -33 -31 -33h-187v940zM152 1417q0 59 42 101.5t101 42.5q57 0 100 -42.5t43 -101.5t-43 -101t-100 -42q-59 0 -101 42t-42 101z" />
<glyph unicode="j" horiz-adv-x="595" d="M-43 -377l35 197q72 -18 125 -19q106 0 106 133v1006l-131 10v156h348v-1188q0 -145 -89 -231t-234 -86q-82 0 -160 22zM186 1417q0 59 42 101.5t102 42.5q59 0 101 -42.5t42 -101.5t-42 -101t-101 -42t-101.5 42t-42.5 101z" />
<glyph unicode="k" horiz-adv-x="1024" d="M143 0v1532h217v-868l160 43q45 12 72 77l129 322h221l-162 -399q-41 -100 -106 -142l311 -565h-248l-260 498l-117 -31v-434q0 -33 -30 -33h-187z" />
<glyph unicode="l" horiz-adv-x="495" d="M143 209v1321h217v-1288q0 -66 70 -80l-47 -180q-109 10 -174.5 71.5t-65.5 155.5z" />
<glyph unicode="m" horiz-adv-x="1738" d="M152 0v678q0 190 105 317t288 127q209 0 313 -168q109 168 320 168q180 0 286 -131q102 -123 103 -313v-645q0 -33 -31 -33h-186v668q0 254 -191 254q-190 0 -190 -275v-647h-217v647q0 121 -45 195q-51 80 -148 80q-190 0 -190 -254v-668h-217z" />
<glyph unicode="n" horiz-adv-x="1103" d="M143 0v1106h187l8 -64q172 80 276 80q170 0 273 -118q94 -113 94 -287v-684q0 -33 -31 -33h-186v694q0 227 -166 228q-94 0 -238 -50v-872h-217z" />
<glyph unicode="o" horiz-adv-x="1118" d="M113 430v244q0 190 121.5 319t320.5 129q203 0 326 -129t123 -319v-244q0 -190 -119 -315q-125 -131 -326 -131t-326 131q-121 125 -120 315zM330 446q0 -117 53 -186q61 -76 176 -76t174 76q53 69 53 186v209q0 119 -53 189q-61 78 -178 78q-113 0 -172 -78 q-53 -70 -53 -189v-209z" />
<glyph unicode="p" horiz-adv-x="1107" d="M133 -383v1489h180l11 -64q164 80 274 80q176 0 286.5 -118.5t110.5 -292.5v-314q0 -174 -110.5 -293.5t-286.5 -119.5q-92 0 -256 67q8 -104 8 -231v-203h-217zM350 233q129 -49 230 -49q198 0 198 242v260q0 109 -51 172.5t-147 63.5q-115 0 -230 -54v-635z" />
<glyph unicode="q" horiz-adv-x="1107" d="M113 397v314q0 174 110.5 292.5t286.5 118.5q119 0 274 -78l11 62h182v-1489l-219 -16v219q0 129 8 231q-162 -67 -253 -67h-3q-176 0 -286.5 119.5t-110.5 293.5zM330 426q0 -242 198 -242q101 0 230 49v635q-115 53 -230 54q-96 0 -147 -63.5t-51 -172.5v-260z" />
<glyph unicode="r" horiz-adv-x="716" d="M143 0v1106h189l10 -109q125 125 229 125q62 0 119 -16l-26 -197q-59 12 -101 13q-80 0 -203 -101v-788q0 -33 -30 -33h-187z" />
<glyph unicode="s" horiz-adv-x="899" d="M102 51l39 193q215 -59 297 -60q147 0 148 123q0 80 -119 135q-197 92 -223 113q-119 90 -119 254q0 143 102.5 228t253.5 85q121 0 289 -59l-53 -189q-152 47 -236 48q-137 0 -137 -113q0 -72 119 -123q180 -76 223 -108q119 -95 119 -271q0 -145 -102.5 -234 t-264.5 -89q-129 0 -336 67z" />
<glyph unicode="t" horiz-adv-x="743" d="M25 938v168h161l33 315h172v-315h238v-168h-238v-612q0 -141 117 -142q41 0 143 21l25 -193q-93 -28 -163 -28h-5q-162 0 -254 100q-80 90 -80 219v635h-149z" />
<glyph unicode="u" horiz-adv-x="1093" d="M123 391v670q0 45 41 45h176v-694q0 -227 166 -228q94 0 237 49v873h218v-1106h-187l-8 63q-172 -79 -274 -79h-3q-170 0 -272 120q-94 113 -94 287z" />
<glyph unicode="v" horiz-adv-x="1036" d="M31 1106h231l184 -574l76 -278l72 278l186 574h234l-377 -1106h-229z" />
<glyph unicode="w" horiz-adv-x="1564" d="M51 1106h221l138 -574l45 -245l49 245l135 496h264l139 -496l52 -249l47 249l137 574h221l-270 -1106h-250l-143 461l-66 291l-63 -291l-140 -461h-245z" />
<glyph unicode="x" horiz-adv-x="1003" d="M41 0l315 573l-301 533h244l190 -373l191 373h244l-297 -533l336 -573h-248l-221 414l-209 -414h-244z" />
<glyph unicode="y" horiz-adv-x="1038" d="M61 1106h222l69 -692q10 -111 46 -162t120 -51q74 0 144 28l38 877h220l-52 -1126q-18 -365 -364 -365h-199l-14 184h215q92 0 123 76q18 43 24 156q-70 -31 -151 -31q-330 0 -369 385z" />
<glyph unicode="z" horiz-adv-x="960" d="M92 176l426 633l80 96h-483v201h710l27 -174l-420 -637l-78 -94h516v-201h-749z" />
<glyph unicode="{" horiz-adv-x="858" d="M72 516v174q111 0 148.5 39t37.5 143v297q0 201 96 301q113 115 371 115v-188q-172 0 -225 -62q-37 -43 -37 -166v-297q0 -100 -31 -161.5t-110 -108.5q80 -49 110.5 -110.5t30.5 -161.5v-293q0 -123 37 -166q55 -63 225 -64v-186q-258 0 -371 115q-98 100 -98 301v293 q0 106 -36 146t-148 40z" />
<glyph unicode="|" horiz-adv-x="581" d="M188 -317v1906h205v-1906h-205z" />
<glyph unicode="}" horiz-adv-x="858" d="M133 -193q170 0 225 64q37 43 37 166v293q0 100 31 161.5t111 110.5q-80 47 -111 108.5t-31 161.5v297q0 123 -37 166q-53 61 -225 62v188q258 0 371 -115q96 -100 96 -301v-297q0 -104 38 -143t148 -39v-174q-113 0 -148.5 -40t-35.5 -146v-293q0 -201 -98 -301 q-113 -115 -371 -115v186z" />
<glyph unicode="~" horiz-adv-x="1298" d="M195 553q133 203 286 203q94 0 211 -97.5t148 -97.5q55 0 139 113l125 -127q-131 -201 -283 -201q-96 0 -212.5 96.5t-143.5 96.5q-74 0 -146 -109z" />
<glyph unicode="&#xa1;" horiz-adv-x="731" d="M225 1100q0 61 45 105t107 44q61 0 105 -44t44 -105t-44 -106.5t-105 -45.5t-106.5 45t-45.5 107zM236 -225l38 936l191 32l37 -968h-266z" />
<glyph unicode="&#xa2;" d="M203 449v245q0 180 114 307q127 139 336 140q18 0 52 -2l10 116l73 -6l-10 -119q90 -14 197 -49l-51 -186q-115 29 -162 37l-64 -729q82 4 236 43l51 -185q-168 -55 -303 -59l-10 -115l-74 7l10 110q-188 16 -301 152q-104 123 -104 293zM420 465q0 -100 45 -168 q55 -82 160 -92l63 735h-35q-121 0 -182 -84q-51 -72 -51 -180v-211z" />
<glyph unicode="&#xa3;" d="M141 578v147h127v264q0 231 125 359.5t346 128.5q113 0 324 -74l-62 -195q-188 61 -262 62q-133 0 -190 -70t-57 -227v-248h483v-147h-492l-30 -373h563v-172q0 -33 -31 -33h-747l30 578h-127z" />
<glyph unicode="&#xa4;" d="M100 539v100h152v180h-152v101h152v38q0 236 125 371q133 145 383 146q156 0 321 -45l-41 -199q-156 39 -280 39q-178 0 -244 -103q-45 -70 -45 -211v-36h502l-17 -101h-485v-180h502l-17 -100h-485v-35q0 -143 43 -213q66 -104 244 -105q143 0 323 52l47 -197 q-209 -57 -368 -57q-250 0 -383 145q-125 137 -125 373v37h-152z" />
<glyph unicode="&#xa5;" d="M59 1458h240l295 -665l295 665h239l-356 -751h154v-156h-219v-102h219v-154h-219v-295h-226v295h-219v154h219v102h-219v156h156z" />
<glyph unicode="&#xa6;" horiz-adv-x="581" d="M188 -322v646h205v-646h-205zM188 940v645h205v-645h-205z" />
<glyph unicode="&#xa7;" horiz-adv-x="1099" d="M143 -217l33 178q188 -49 318 -49q233 0 233 192q0 102 -158 177q-238 111 -274 139q-135 100 -135 268q0 129 73 221q-41 72 -40 164q0 170 120 268q115 92 297 93q158 0 310 -54l-43 -178q-137 51 -267 51q-219 0 -219 -180q0 -92 146 -162q96 -45 194 -90 q106 -55 160 -123q65 -83 65 -206q0 -135 -69 -226q37 -68 37 -162q0 -174 -118 -274t-312 -100q-168 0 -351 53zM358 688q0 -94 138 -160q86 -33 249 -116q15 37 15 80q0 96 -133 163q-84 35 -250 117q-18 -31 -19 -84z" />
<glyph unicode="&#xa8;" horiz-adv-x="819" d="M102 1348q0 53 36 89t89 36q51 0 88 -37t37 -88t-36.5 -88t-88.5 -37q-53 0 -89 35.5t-36 89.5zM467 1348q0 53 37 89t88 36t88 -37t37 -88t-37 -88t-88 -37t-88 36.5t-37 88.5z" />
<glyph unicode="&#xa9;" horiz-adv-x="1744" d="M188 707q0 291 201 496.5t483 205.5q283 0 483.5 -205.5t200.5 -496.5t-200.5 -499t-483.5 -208t-483.5 208t-200.5 499zM315 707q0 -240 164 -409t393 -169t393.5 169t164.5 409t-164 407.5t-394 167.5q-229 0 -393 -168t-164 -407zM567 602v207q0 125 80 195.5 t207 70.5q92 0 219 -37l-35 -125q-113 33 -184 33q-150 0 -149 -137v-207q0 -135 149 -135q76 0 184 31l35 -123q-127 -37 -219 -37q-127 0 -207 70.5t-80 193.5z" />
<glyph unicode="&#xaa;" horiz-adv-x="909" d="M164 887q0 111 84 170q74 53 192 53h160v25q0 80 -30.5 114.5t-104.5 34.5q-78 0 -217 -37l-33 127q152 43 250 43q135 0 207.5 -70.5t72.5 -191.5v-493h-122l-9 40q-117 -53 -188 -53q-115 0 -188.5 64.5t-73.5 173.5zM309 887q0 -45 31 -77t86 -32q82 0 174 37v182 h-147q-143 0 -144 -110z" />
<glyph unicode="&#xab;" horiz-adv-x="1374" d="M188 543l273 391h260l-275 -391l275 -398h-260zM651 543l277 391h258l-275 -391l275 -398h-258z" />
<glyph unicode="&#xac;" horiz-adv-x="1208" d="M188 449v200h832v-540h-207v340h-625z" />
<glyph unicode="&#xad;" horiz-adv-x="948" d="M133 436v221h682v-221h-682z" />
<glyph unicode="&#xae;" horiz-adv-x="1742" d="M188 707q0 291 201 496.5t483 205.5q283 0 482.5 -205.5t199.5 -496.5t-199.5 -499t-482.5 -208t-483.5 208t-200.5 499zM315 707q0 -240 164 -409t393 -169t393.5 169t164.5 409t-164 407.5t-394 167.5q-229 0 -393 -168t-164 -407zM618 336v696q172 45 256 45 q119 0 186.5 -67.5t67.5 -167.5q0 -129 -122 -205l135 -301h-156l-123 268h-100v-268h-144zM762 731h112q113 0 113 111q0 109 -113 108h-4q-33 0 -108 -14v-205z" />
<glyph unicode="&#xaf;" horiz-adv-x="673" d="M2 1212v189h670v-189h-670z" />
<glyph unicode="&#xb0;" horiz-adv-x="788" d="M160 1182q0 96 69.5 164.5t165.5 68.5t165 -68.5t69 -164.5t-68.5 -165t-165.5 -69q-96 0 -165.5 68.5t-69.5 165.5zM246 1182q0 -61 44 -105.5t105 -44.5t105.5 44.5t44.5 105.5t-44 105t-106 44q-61 0 -105 -44t-44 -105z" />
<glyph unicode="&#xb1;" horiz-adv-x="1228" d="M188 47h852v-192h-852v192zM188 444v209h322v271h207v-271h323v-209h-323v-280h-207v280h-322z" />
<glyph unicode="&#xb2;" horiz-adv-x="692" />
<glyph unicode="&#xb3;" horiz-adv-x="692" />
<glyph unicode="&#xb4;" horiz-adv-x="819" d="M123 1364l498 240l75 -170l-512 -213z" />
<glyph unicode="&#xb6;" horiz-adv-x="1374" d="M195 977q0 184 131 313t317 129h533v-1687h-215v1468h-152v-1468h-215v807q-174 23 -286.5 145.5t-112.5 292.5z" />
<glyph unicode="&#xb7;" horiz-adv-x="464" d="M92 592q0 61 44 107t106 46q61 0 106 -45t45 -108q0 -61 -45 -105.5t-106 -44.5t-105.5 44t-44.5 106z" />
<glyph unicode="&#xb8;" horiz-adv-x="595" d="M102 -385l21 164q53 -12 94 -12q88 0 88 92v143h189v-190q0 -111 -84 -168q-70 -45 -172 -45q-49 0 -136 16z" />
<glyph unicode="&#xb9;" horiz-adv-x="692" />
<glyph unicode="&#xba;" horiz-adv-x="962" d="M164 954v164q0 129 86 216t229 87t231.5 -87t88.5 -216v-164q0 -129 -86 -215t-230 -86q-143 0 -231 86t-88 215zM309 965q0 -178 174 -179q170 1 170 179v143q0 180 -174 180q-170 0 -170 -180v-143z" />
<glyph unicode="&#xbb;" horiz-adv-x="1374" d="M188 145l273 398l-273 391h258l275 -391l-275 -398h-258zM651 145l277 398l-277 391h260l275 -391l-275 -398h-260z" />
<glyph unicode="&#xbc;" horiz-adv-x="692" />
<glyph unicode="&#xbd;" horiz-adv-x="692" />
<glyph unicode="&#xbe;" horiz-adv-x="692" />
<glyph unicode="&#xbf;" horiz-adv-x="1107" d="M205 117q0 86 59 184q66 82 129 164q90 127 90 272l222 25q0 -207 -72 -336q-29 -51 -131 -160q-72 -74 -72 -149q0 -55 39 -96t111 -41q102 0 249 88l84 -183q-176 -109 -333 -108q-168 0 -271.5 100t-103.5 240zM442 1118q0 61 45 105.5t107 44.5q61 0 105 -44.5 t44 -105.5t-44 -106t-105 -45t-106.5 45t-45.5 106z" />
<glyph unicode="&#xc0;" horiz-adv-x="1290" d="M35 0l334 1231q66 244 272 244q211 0 277 -244l333 -1231h-225l-113 420h-540l-113 -420h-225zM369 1769l77 170l498 -239l-63 -144zM426 612h434l-151 559q-27 98 -68 99q-37 0 -63 -99z" />
<glyph unicode="&#xc1;" horiz-adv-x="1290" d="M35 0l334 1231q66 244 272 244q211 0 277 -244l333 -1231h-225l-113 420h-540l-113 -420h-225zM319 1708l498 240l76 -170l-512 -213zM426 612h434l-151 559q-27 98 -68 99q-37 0 -63 -99z" />
<glyph unicode="&#xc2;" horiz-adv-x="1290" d="M35 0l334 1231q66 244 272 244q211 0 277 -244l333 -1231h-225l-113 420h-540l-113 -420h-225zM287 1683l346 283l344 -283l-107 -122l-237 208l-240 -208zM426 612h434l-151 559q-27 98 -68 99q-37 0 -63 -99z" />
<glyph unicode="&#xc3;" horiz-adv-x="1290" d="M35 0l334 1231q66 244 272 244q211 0 277 -244l333 -1231h-225l-113 420h-540l-113 -420h-225zM311 1663q78 162 199 162q61 0 136 -42t91 -42q47 0 94 76l113 -91q-78 -160 -199 -159q-61 0 -135.5 42t-91.5 42q-47 0 -96 -78zM426 612h434l-151 559q-27 98 -68 99 q-37 0 -63 -99z" />
<glyph unicode="&#xc4;" horiz-adv-x="1290" d="M35 0l334 1231q66 244 272 244q211 0 277 -244l333 -1231h-225l-113 420h-540l-113 -420h-225zM324 1692q0 53 36.5 89t88.5 36q51 0 87.5 -37t36.5 -88t-36.5 -88t-87.5 -37t-88 36.5t-37 88.5zM426 612h434l-151 559q-27 98 -68 99q-37 0 -63 -99zM688 1692q0 53 37 89 t88 36t88 -37t37 -88t-37 -88t-88 -37t-88 36.5t-37 88.5z" />
<glyph unicode="&#xc5;" horiz-adv-x="1290" d="M35 0l334 1231q66 244 272 244q211 0 277 -244l333 -1231h-225l-113 420h-540l-113 -420h-225zM426 612h434l-151 559q-27 98 -68 99q-37 0 -63 -99zM442 1761q0 82 57.5 139.5t137.5 57.5q82 0 139.5 -57.5t57.5 -139.5q0 -80 -57.5 -137t-139.5 -57q-80 0 -137.5 57 t-57.5 137zM537 1759q0 -39 29.5 -68.5t68.5 -29.5q43 0 72.5 28.5t29.5 69.5q0 43 -29.5 73t-72.5 30q-41 0 -69.5 -30t-28.5 -73z" />
<glyph unicode="&#xc6;" horiz-adv-x="1843" d="M35 0l553 1239q98 219 307 219h848v-203h-557v-409h528v-203h-528v-229q0 -115 33 -156q43 -55 174 -55h358v-170q0 -33 -31 -33h-327q-209 0 -318.5 104.5t-109.5 284.5v37h-521l-192 -426h-217zM518 598h447v657h-70q-57 0 -82 -20q-16 -16 -45 -78z" />
<glyph unicode="&#xc7;" horiz-adv-x="1189" d="M123 537v415q0 238 129 379q143 160 412 160q172 0 421 -70l-49 -202q-207 68 -374 67q-319 0 -320 -354v-375q0 -354 320 -354q158 0 372 71l53 -196q-92 -29 -288 -70v-180q0 -111 -84 -166q-70 -47 -172 -47q-49 0 -135 16l20 164q53 -12 94 -12q88 0 88 92v127 q-244 14 -370 168q-117 141 -117 367z" />
<glyph unicode="&#xc8;" horiz-adv-x="1021" d="M113 383v690q0 178 106.5 281.5t306.5 103.5h396v-203h-396q-115 0 -157 -55q-37 -45 -37 -147v-207h563v-205h-563v-238q0 -100 37 -145q43 -55 157 -55h404v-160q0 -43 -43 -43h-361q-201 0 -309 106q-104 100 -104 277zM264 1769l78 170l498 -239l-64 -144z" />
<glyph unicode="&#xc9;" horiz-adv-x="1021" d="M113 383v690q0 178 106.5 281.5t306.5 103.5h396v-203h-396q-115 0 -157 -55q-37 -45 -37 -147v-207h563v-205h-563v-238q0 -100 37 -145q43 -55 157 -55h404v-160q0 -43 -43 -43h-361q-201 0 -309 106q-104 100 -104 277zM236 1708l497 240l76 -170l-512 -213z" />
<glyph unicode="&#xca;" horiz-adv-x="1021" d="M113 383v690q0 178 106.5 281.5t306.5 103.5h396v-203h-396q-115 0 -157 -55q-37 -45 -37 -147v-207h563v-205h-563v-238q0 -100 37 -145q43 -55 157 -55h404v-160q0 -43 -43 -43h-361q-201 0 -309 106q-104 100 -104 277zM182 1683l346 283l344 -283l-106 -122l-238 208 l-239 -208z" />
<glyph unicode="&#xcb;" horiz-adv-x="1021" d="M113 383v690q0 178 106.5 281.5t306.5 103.5h396v-203h-396q-115 0 -157 -55q-37 -45 -37 -147v-207h563v-205h-563v-238q0 -100 37 -145q43 -55 157 -55h404v-160q0 -43 -43 -43h-361q-201 0 -309 106q-104 100 -104 277zM219 1692q0 53 36 89t89 36q51 0 88 -37t37 -88 t-37 -88t-88 -37q-53 0 -89 35.5t-36 89.5zM584 1692q0 53 36.5 89t88.5 36q51 0 88 -37t37 -88t-37 -88t-88 -37t-88 36.5t-37 88.5z" />
<glyph unicode="&#xcc;" horiz-adv-x="509" d="M-4 1769l78 170l497 -239l-63 -144zM143 0v1458h219v-1415q0 -43 -40 -43h-179z" />
<glyph unicode="&#xcd;" horiz-adv-x="509" d="M-55 1708l497 240l76 -170l-512 -213zM143 0v1458h219v-1415q0 -43 -40 -43h-179z" />
<glyph unicode="&#xce;" horiz-adv-x="509" d="M-92 1683l346 283l344 -283l-106 -122l-238 208l-240 -208zM143 0v1458h219v-1415q0 -43 -40 -43h-179z" />
<glyph unicode="&#xcf;" horiz-adv-x="509" d="M-53 1692q0 53 36.5 89t88.5 36q51 0 88 -37t37 -88t-37 -88t-88 -37t-88 36.5t-37 88.5zM143 0v1458h219v-1415q0 -43 -40 -43h-179zM311 1692q0 53 37 89t88 36t88 -37t37 -88t-37 -88t-88 -37t-88 36.5t-37 88.5z" />
<glyph unicode="&#xd0;" horiz-adv-x="692" />
<glyph unicode="&#xd1;" horiz-adv-x="1316" d="M156 0v1458h159q115 0 177 -61q45 -43 104 -176l272 -607l82 -229l-14 229v844h219v-1458h-254l-504 1130q-8 14 -22 41v-1171h-219zM332 1663q78 162 198 162q61 0 136 -42t92 -42q47 0 94 76l113 -91q-78 -160 -199 -159q-61 0 -136 42t-91 42q-47 0 -97 -78z" />
<glyph unicode="&#xd2;" horiz-adv-x="1333" d="M123 557v346q0 244 145 404q152 168 400 168q246 0 399 -175q143 -162 143 -397v-346q0 -244 -145 -403q-152 -170 -397 -170q-248 0 -402 172q-143 162 -143 401zM342 575q0 -156 74 -262q86 -127 252 -127q160 0 247 127q76 108 76 262v310q0 154 -76 260 q-88 127 -247 127q-166 0 -252 -127q-74 -104 -74 -260v-310zM389 1772l78 170l498 -240l-64 -143z" />
<glyph unicode="&#xd3;" horiz-adv-x="1333" d="M123 555v346q0 244 145 404q152 168 400 168q246 0 399 -175q143 -162 143 -397v-346q0 -244 -145 -403q-152 -170 -397 -170q-248 0 -402 172q-143 162 -143 401zM340 1708l498 240l75 -170l-512 -213zM342 573q0 -156 74 -262q86 -127 252 -127q160 0 247 127 q76 108 76 262v310q0 154 -76 260q-88 127 -247 127q-166 0 -252 -127q-74 -104 -74 -260v-310z" />
<glyph unicode="&#xd4;" horiz-adv-x="1333" d="M123 555v346q0 246 148.5 409t396.5 163q246 0 399 -173q143 -164 143 -399v-346q0 -242 -145 -403q-152 -170 -397 -170q-248 0 -402 174q-143 162 -143 399zM307 1683l346 283l344 -283l-106 -122l-238 208l-239 -208zM342 573q0 -156 74 -262q86 -127 252 -127 q160 0 247 127q76 108 76 262v310q0 154 -76 262q-88 125 -247 125q-166 0 -252 -125q-74 -106 -74 -262v-310z" />
<glyph unicode="&#xd5;" horiz-adv-x="1333" d="M123 557v346q0 244 145 404q152 168 400 168q246 0 399 -175q143 -162 143 -397v-346q0 -244 -145 -403q-152 -170 -397 -170q-248 0 -402 172q-143 162 -143 401zM342 575q0 -156 74 -262q86 -127 252 -127q160 0 247 127q76 108 76 262v310q0 154 -76 260 q-88 127 -247 127q-166 0 -252 -127q-74 -104 -74 -260v-310zM352 1665q78 162 199 162q61 0 136 -42t91 -42q47 0 94 76l113 -90q-78 -160 -199 -160q-61 0 -136 42t-91 42q-47 0 -96 -78z" />
<glyph unicode="&#xd6;" horiz-adv-x="1333" d="M123 557v346q0 244 145 404q152 168 400 168q246 0 399 -175q143 -162 143 -397v-346q0 -244 -145 -403q-152 -170 -397 -170q-248 0 -402 172q-143 162 -143 401zM342 575q0 -156 74 -262q86 -127 252 -127q160 0 247 127q76 108 76 262v310q0 154 -76 260 q-88 127 -247 127q-166 0 -252 -127q-74 -104 -74 -260v-310zM350 1694q0 51 36 88t89 37q51 0 88 -37t37 -88q0 -53 -37 -89t-88 -36q-53 0 -89 35.5t-36 89.5zM715 1694q0 51 36.5 88t88.5 37q51 0 88 -37t37 -88t-37 -88t-88 -37t-88 35.5t-37 89.5z" />
<glyph unicode="&#xd7;" horiz-adv-x="692" />
<glyph unicode="&#xd8;" horiz-adv-x="1333" d="M123 555v346q0 244 145 404q152 170 398 170q104 0 194 -33l45 127l103 -39l-50 -137q119 -76 185.5 -207t66.5 -285v-346q0 -244 -145 -403q-152 -168 -399 -168q-104 0 -195 32l-45 -129l-102 39l49 140q-119 76 -184.5 206.5t-65.5 282.5zM342 573q0 -188 104 -297 l345 971q-55 23 -125 23q-160 0 -248 -127q-76 -106 -76 -260v-310zM541 211q57 -25 125 -25q166 0 252 127q71 104 71 260v310q0 193 -104 301z" />
<glyph unicode="&#xd9;" horiz-adv-x="1312" d="M133 553v905h219v-942q0 -135 74 -227q84 -102 229 -103q143 0 226 103q74 92 73 227v942h220v-905q0 -268 -136.5 -418.5t-382.5 -150.5t-384 150.5t-138 418.5zM369 1772l77 170l498 -240l-63 -143z" />
<glyph unicode="&#xda;" horiz-adv-x="1312" d="M133 551v905h219v-942q0 -135 74 -227q84 -102 229 -103q143 0 226 103q74 92 73 227v942h220v-905q0 -268 -136.5 -418.5t-382.5 -150.5t-384 150.5t-138 418.5zM381 1708l498 240l75 -170l-512 -213z" />
<glyph unicode="&#xdb;" horiz-adv-x="1312" d="M133 553v905h219v-942q0 -135 74 -227q84 -102 229 -103q143 0 226 103q74 92 73 227v942h220v-905q0 -268 -136.5 -418.5t-382.5 -150.5t-384 150.5t-138 418.5zM307 1686l346 282l344 -282l-106 -123l-238 209l-239 -209z" />
<glyph unicode="&#xdc;" horiz-adv-x="1312" d="M133 553v905h219v-942q0 -135 74 -227q84 -102 229 -103q143 0 226 103q74 92 73 227v942h220v-905q0 -268 -136.5 -418.5t-382.5 -150.5t-384 150.5t-138 418.5zM365 1694q0 51 35.5 88t88.5 37q51 0 88 -37t37 -88q0 -53 -36.5 -89t-88.5 -36q-53 0 -88.5 35.5 t-35.5 89.5zM729 1694q0 51 37 88t88 37t88 -37t37 -88t-37 -88t-88 -37t-88 35.5t-37 89.5z" />
<glyph unicode="&#xdd;" horiz-adv-x="692" />
<glyph unicode="&#xde;" horiz-adv-x="692" />
<glyph unicode="&#xdf;" horiz-adv-x="1239" d="M188 0v1380q242 94 375 95q162 0 264 -93q111 -96 111 -258q0 -72 -53 -141q-25 -33 -97 -98q-53 -49 -53 -72q0 -35 82 -100q113 -94 150 -138q82 -96 82 -200q0 -176 -116 -283.5t-312 -107.5q-41 0 -183 32l27 203q115 -31 156 -31q102 0 159 56q47 47 47 121 q0 82 -79 149q-76 55 -152 113q-80 76 -80 176q0 82 101.5 178t101.5 143q0 145 -156 146q-82 0 -153 -23v-1247h-222z" />
<glyph unicode="&#xe0;" horiz-adv-x="995" d="M92 328q0 164 121 247q104 70 272 70h195v57q0 115 -40 167.5t-134 52.5q-141 0 -297 -50l-51 189q190 61 348 61q186 0 288.5 -106.5t102.5 -284.5v-731h-182l-10 68q-131 -84 -250 -84q-158 0 -260.5 93t-102.5 251zM246 1434l78 170l497 -240l-63 -143zM309 334 q0 -72 41 -121t111 -49q106 0 219 43v274h-182q-92 0 -140.5 -43t-48.5 -104z" />
<glyph unicode="&#xe1;" horiz-adv-x="995" d="M92 330q0 162 121 245q104 72 272 72h195v55q0 115 -40 167.5t-134 52.5q-141 0 -297 -50l-51 189q190 61 348 61q186 0 288.5 -106.5t102.5 -284.5v-731h-182l-10 68q-131 -84 -250 -84q-158 0 -260.5 93t-102.5 253zM176 1364l498 240l76 -170l-512 -213zM309 334 q0 -72 41 -121t111 -49q106 0 219 43v274h-182q-92 0 -140.5 -43t-48.5 -104z" />
<glyph unicode="&#xe2;" horiz-adv-x="995" d="M92 328q0 164 121 247q104 70 272 70h195v57q0 115 -40 167.5t-134 52.5q-141 0 -297 -50l-51 189q190 61 348 61q186 0 288.5 -106.5t102.5 -284.5v-731h-182l-10 68q-131 -84 -250 -84q-158 0 -260.5 93t-102.5 251zM152 1341l346 283l344 -283l-107 -122l-237 208 l-240 -208zM309 334q0 -72 41 -121t111 -49q106 0 219 43v274h-182q-92 0 -140.5 -43t-48.5 -104z" />
<glyph unicode="&#xe3;" horiz-adv-x="995" d="M92 328q0 164 121 247q104 70 272 70h195v57q0 115 -40 167.5t-134 52.5q-141 0 -297 -50l-51 189q190 61 348 61q186 0 288.5 -106.5t102.5 -284.5v-731h-182l-10 68q-131 -84 -250 -84q-158 0 -260.5 93t-102.5 251zM168 1321q78 162 199 162q61 0 136 -42t91 -42 q47 0 94 76l113 -91q-78 -160 -199 -159q-61 0 -136 42t-91 42q-47 0 -96 -78zM309 334q0 -72 41 -121t111 -49q106 0 219 43v274h-182q-92 0 -140.5 -43t-48.5 -104z" />
<glyph unicode="&#xe4;" horiz-adv-x="995" d="M92 328q0 164 121 247q104 70 272 70h195v57q0 115 -40 167.5t-134 52.5q-141 0 -297 -50l-51 189q190 61 348 61q186 0 288.5 -106.5t102.5 -284.5v-731h-182l-10 68q-131 -84 -250 -84q-158 0 -260.5 93t-102.5 251zM180 1348q0 51 37 88t88 37t88 -37t37 -88 q0 -53 -37 -89t-88 -36t-88 35.5t-37 89.5zM309 334q0 -72 41 -121t111 -49q106 0 219 43v274h-182q-92 0 -140.5 -43t-48.5 -104zM545 1348q0 51 36.5 88t88.5 37q51 0 88 -37t37 -88t-37 -88t-88 -37t-88 35.5t-37 89.5z" />
<glyph unicode="&#xe5;" horiz-adv-x="995" d="M92 328q0 164 121 247q104 70 272 70h195v57q0 115 -40 167.5t-134 52.5q-141 0 -297 -50l-51 189q190 61 348 61q186 0 288.5 -106.5t102.5 -284.5v-731h-182l-10 68q-131 -84 -250 -84q-158 0 -260.5 93t-102.5 251zM307 1419q0 82 57.5 139.5t137.5 57.5 q82 0 139 -57.5t57 -139.5q0 -80 -57 -137t-139 -57q-80 0 -137.5 57t-57.5 137zM309 334q0 -72 41 -121t111 -49q106 0 219 43v274h-182q-92 0 -140.5 -43t-48.5 -104zM401 1417q0 -39 30 -68.5t69 -29.5q43 0 72.5 28.5t29.5 69.5q0 43 -29.5 73t-72.5 30q-41 0 -70 -30 t-29 -73z" />
<glyph unicode="&#xe6;" horiz-adv-x="1642" d="M92 340q0 166 117 254q102 80 266 80h205v28q0 115 -40 167.5t-134 52.5q-121 0 -297 -56l-51 189q211 68 348 67q199 0 303 -121q121 123 303 123q195 0 318 -139q113 -129 112 -309v-144q0 -45 -43 -45h-600v-63q0 -94 53 -160q68 -78 195 -78q109 0 313 56l47 -189 q-199 -68 -360 -67q-141 0 -248 59v-45h-184l-10 59q-160 -76 -250 -75q-156 0 -259.5 98t-103.5 258zM309 340q0 -63 39 -109.5t107 -46.5q112 0 225 43v283h-186q-96 0 -146 -59q-39 -45 -39 -111zM899 653h424q-4 270 -211 271q-213 0 -213 -267v-4z" />
<glyph unicode="&#xe7;" horiz-adv-x="991" d="M113 430v246q0 180 114 307q127 139 336 139q139 0 322 -59l-51 -186q-178 45 -271 45q-121 0 -182 -84q-51 -72 -51 -181v-211q0 -109 51 -178q61 -84 182 -84q111 0 281 43l51 -184q-111 -37 -205 -51v-180q0 -111 -84 -168q-70 -45 -172 -45q-49 0 -135 16l20 164 q53 -12 95 -12q88 0 88 92v127q-182 23 -289 155q-100 123 -100 289z" />
<glyph unicode="&#xe8;" horiz-adv-x="1073" d="M113 430v244q0 184 114 311q121 137 316 137t317 -139q113 -129 113 -309v-144q0 -45 -43 -45h-600v-55q0 -98 53 -164q66 -82 195 -82q109 0 313 56l47 -189q-199 -68 -360 -67q-219 0 -349 139q-117 125 -116 307zM287 1436l78 170l497 -240l-63 -143zM330 651h424 q-4 270 -211 271q-205 0 -213 -271z" />
<glyph unicode="&#xe9;" horiz-adv-x="1073" d="M113 430v244q0 184 114 311q121 137 316 137t317 -139q113 -129 113 -309v-144q0 -45 -43 -45h-600v-55q0 -98 53 -164q66 -82 195 -82q109 0 313 56l47 -189q-199 -68 -360 -67q-219 0 -349 139q-117 125 -116 307zM217 1366l498 240l76 -170l-512 -213zM330 651h424 q-4 270 -211 271q-205 0 -213 -271z" />
<glyph unicode="&#xea;" horiz-adv-x="1073" d="M113 430v244q0 184 114 311q121 137 316 137t317 -139q113 -129 113 -309v-144q0 -45 -43 -45h-600v-55q0 -98 53 -164q66 -82 195 -82q109 0 313 56l47 -189q-199 -68 -360 -67q-219 0 -349 139q-117 125 -116 307zM193 1343l346 283l344 -283l-107 -122l-237 209 l-240 -209zM330 651h424q-4 270 -211 271q-205 0 -213 -271z" />
<glyph unicode="&#xeb;" horiz-adv-x="1073" d="M113 430v244q0 184 114 311q121 137 316 137t317 -139q113 -129 113 -309v-144q0 -45 -43 -45h-600v-55q0 -98 53 -164q66 -82 195 -82q109 0 313 56l47 -189q-199 -68 -360 -67q-219 0 -349 139q-117 125 -116 307zM225 1350q0 51 37 88t88 37t88 -37t37 -88 q0 -53 -37 -89t-88 -36t-88 35.5t-37 89.5zM330 651h424q-4 270 -211 271q-205 0 -213 -271zM590 1350q0 51 37 88t88 37t88 -37t37 -88t-37 -88t-88 -37t-88 35.5t-37 89.5z" />
<glyph unicode="&#xec;" horiz-adv-x="548" d="M-10 1434l78 170l497 -240l-63 -143zM63 950v156h345v-1073q0 -33 -31 -33h-187v940z" />
<glyph unicode="&#xed;" horiz-adv-x="548" d="M-39 1364l498 240l76 -170l-512 -213zM63 950v156h345v-1073q0 -33 -31 -33h-187v940z" />
<glyph unicode="&#xee;" horiz-adv-x="548" d="M-72 1341l346 283l344 -283l-106 -122l-238 208l-239 -208zM63 950v156h345v-1073q0 -33 -31 -33h-187v940z" />
<glyph unicode="&#xef;" horiz-adv-x="548" d="M-35 1348q0 53 36 89t89 36q51 0 88 -37t37 -88t-37 -88t-88 -37q-53 0 -89 35.5t-36 89.5zM63 950v156h345v-1073q0 -33 -31 -33h-187v940zM330 1348q0 53 36.5 89t88.5 36q51 0 88 -37t37 -88t-37 -88t-88 -37t-88 36.5t-37 88.5z" />
<glyph unicode="&#xf0;" horiz-adv-x="692" />
<glyph unicode="&#xf1;" horiz-adv-x="1103" d="M143 0v1106h187l8 -64q172 80 276 80q170 0 273 -118q94 -113 94 -287v-684q0 -33 -31 -33h-186v694q0 227 -166 228q-94 0 -238 -50v-872h-217zM250 1321q78 162 199 162q61 0 135.5 -42t91.5 -42q47 0 94 76l113 -91q-78 -160 -199 -159q-61 0 -136 42t-91 42 q-47 0 -97 -78z" />
<glyph unicode="&#xf2;" horiz-adv-x="1118" d="M113 430v244q0 190 121.5 319t320.5 129q203 0 326 -129t123 -319v-244q0 -190 -119 -315q-125 -131 -326 -131t-326 131q-121 125 -120 315zM307 1436l78 170l498 -240l-64 -143zM330 446q0 -117 53 -186q61 -76 176 -76t174 76q53 69 53 186v209q0 119 -53 189 q-61 78 -178 78q-113 0 -172 -78q-53 -70 -53 -189v-209z" />
<glyph unicode="&#xf3;" horiz-adv-x="1118" d="M113 430v244q0 190 121.5 319t320.5 129q203 0 326 -129t123 -319v-244q0 -190 -119 -315q-125 -131 -326 -131t-326 131q-121 125 -120 315zM217 1366l498 240l76 -170l-512 -213zM330 446q0 -117 53 -186q61 -76 176 -76t174 76q53 69 53 186v209q0 119 -53 189 q-61 78 -178 78q-113 0 -172 -78q-53 -70 -53 -189v-209z" />
<glyph unicode="&#xf4;" horiz-adv-x="1118" d="M113 430v244q0 190 121.5 319t320.5 129q203 0 326 -129t123 -319v-244q0 -190 -119 -315q-125 -131 -326 -131t-326 131q-121 125 -120 315zM207 1343l346 283l344 -283l-106 -122l-238 209l-240 -209zM330 446q0 -117 53 -186q61 -76 176 -76t174 76q53 69 53 186v209 q0 119 -53 189q-61 78 -178 78q-113 0 -172 -78q-53 -70 -53 -189v-209z" />
<glyph unicode="&#xf5;" horiz-adv-x="1118" d="M113 430v244q0 190 121.5 319t320.5 129q203 0 326 -129t123 -319v-244q0 -190 -119 -315q-125 -131 -326 -131t-326 131q-121 125 -120 315zM229 1323q78 162 199 162q61 0 136 -42t91 -42q47 0 95 76l112 -91q-78 -160 -198 -159q-61 0 -136 42t-92 42q-47 0 -96 -78z M330 446q0 -117 53 -186q61 -76 176 -76t174 76q53 69 53 186v209q0 119 -53 189q-61 78 -178 78q-113 0 -172 -78q-53 -70 -53 -189v-209z" />
<glyph unicode="&#xf6;" horiz-adv-x="1118" d="M113 430v244q0 190 121.5 319t320.5 129q203 0 326 -129t123 -319v-244q0 -190 -119 -315q-125 -131 -326 -131t-326 131q-121 125 -120 315zM242 1350q0 51 36.5 88t88.5 37q51 0 88 -37t37 -88q0 -53 -37 -89t-88 -36t-88 35.5t-37 89.5zM330 446q0 -117 53 -186 q61 -76 176 -76t174 76q53 69 53 186v209q0 119 -53 189q-61 78 -178 78q-113 0 -172 -78q-53 -70 -53 -189v-209zM606 1350q0 51 37 88t88 37t88 -37t37 -88t-37 -88t-88 -37t-88 35.5t-37 89.5z" />
<glyph unicode="&#xf7;" horiz-adv-x="692" />
<glyph unicode="&#xf8;" horiz-adv-x="1118" d="M113 430v244q0 190 121.5 319t320.5 129q68 0 139 -20l33 94l102 -39l-34 -98q209 -123 209 -385v-244q0 -190 -119 -315q-125 -131 -326 -131q-74 0 -139 18l-33 -94l-102 39l34 98q-207 121 -206 385zM330 446q0 -129 61 -196l236 661q-37 10 -72 11q-113 0 -172 -78 q-53 -70 -53 -189v-209zM487 193q31 -8 72 -9q115 0 174 76q53 69 53 186v209q0 127 -63 199z" />
<glyph unicode="&#xf9;" horiz-adv-x="1093" d="M123 391v670q0 45 41 45h176v-694q0 -227 166 -228q94 0 237 49v873h218v-1106h-187l-8 57q-170 -74 -277 -73q-170 0 -272 120q-94 113 -94 287zM287 1436l78 170l497 -240l-63 -143z" />
<glyph unicode="&#xfa;" horiz-adv-x="1093" d="M123 391v670q0 45 41 45h176v-694q0 -227 166 -228q94 0 237 49v873h218v-1106h-187l-8 57q-170 -74 -277 -73q-170 0 -272 120q-94 113 -94 287zM238 1366l497 240l76 -170l-512 -213z" />
<glyph unicode="&#xfb;" horiz-adv-x="1093" d="M123 391v670q0 45 41 45h176v-694q0 -227 166 -228q94 0 237 49v873h218v-1106h-187l-8 57q-170 -74 -277 -73q-170 0 -272 120q-94 113 -94 287zM193 1343l346 283l344 -283l-107 -122l-237 209l-240 -209z" />
<glyph unicode="&#xfc;" horiz-adv-x="1093" d="M123 391v670q0 45 41 45h176v-694q0 -227 166 -228q94 0 237 49v873h218v-1106h-187l-8 57q-170 -74 -277 -73q-170 0 -272 120q-94 113 -94 287zM221 1350q0 51 37 88t88 37t88 -37t37 -88q0 -53 -37 -89t-88 -36t-88 35.5t-37 89.5zM586 1350q0 51 36.5 88t88.5 37 q51 0 88 -37t37 -88t-37 -88t-88 -37t-88 35.5t-37 89.5z" />
<glyph unicode="&#xfd;" horiz-adv-x="692" />
<glyph unicode="&#xfe;" horiz-adv-x="692" />
<glyph unicode="&#xff;" horiz-adv-x="1038" d="M61 1106h222l67 -690q20 -215 187 -215q76 0 143 28l39 877h219l-51 -1129q-16 -362 -365 -362h-239l-15 201h256q92 0 125 67q18 39 23 148q-70 -33 -152 -33q-166 0 -268 104.5t-121 284.5zM221 1352q0 51 36 88t89 37q51 0 88 -37t37 -88q0 -53 -37 -89t-88 -36 q-53 0 -89 35.5t-36 89.5zM586 1352q0 51 36.5 88t88.5 37q51 0 88 -37t37 -88q0 -53 -37 -89t-88 -36t-88 35.5t-37 89.5z" />
<glyph unicode="&#x152;" horiz-adv-x="1898" d="M123 557v346q0 244 145 404q152 168 400 168q238 0 389 -164q106 147 346 147h395v-203h-395q-115 0 -158 -55q-35 -45 -35 -147v-207h562v-205h-562v-238q0 -102 35 -145q43 -55 158 -55h403v-160q0 -43 -43 -43h-360q-238 0 -344 145q-150 -162 -391 -161 q-248 0 -402 172q-143 162 -143 401zM342 575q0 -156 74 -262q86 -127 252 -127q160 0 247 127q74 106 74 262v310q0 154 -74 260q-88 127 -247 127q-166 0 -252 -127q-74 -104 -74 -260v-310z" />
<glyph unicode="&#x153;" horiz-adv-x="1746" d="M113 430v244q0 190 121.5 319t320.5 129q211 0 338 -143q123 143 324 143q195 0 317 -139q113 -129 113 -309v-144q0 -45 -43 -45h-600v-55q0 -98 53 -164q66 -82 194 -82q109 0 314 56l47 -189q-199 -68 -361 -67q-225 0 -354 145q-125 -145 -338 -145q-201 0 -326 131 q-121 125 -120 315zM330 446q0 -117 53 -186q61 -76 176 -76t174 76q53 69 53 186v209q0 119 -53 189q-61 78 -178 78q-113 0 -172 -78q-53 -70 -53 -189v-209zM1004 651h423q-4 270 -210 271q-205 0 -213 -271z" />
<glyph unicode="&#x178;" d="M72 1458h221l80 -418q29 -147 63 -200q49 -78 156 -78q109 0 160 78q37 55 63 200l78 418h223l-86 -457q-31 -164 -90 -256q-82 -129 -238 -170v-575h-223v575q-154 41 -233 170q-57 92 -88 256zM266 1692q0 53 37 89t88 36t88 -37t37 -88t-37 -88t-88 -37t-88 36.5 t-37 88.5zM631 1692q0 53 37 89t88 36t88 -37t37 -88t-37 -88t-88 -37t-88 36.5t-37 88.5z" />
<glyph unicode="&#x2c6;" horiz-adv-x="894" d="M102 1341l347 283l344 -283l-107 -122l-237 208l-240 -208z" />
<glyph unicode="&#x2dc;" horiz-adv-x="776" d="M72 1321q78 162 198 162q61 0 136 -42t92 -42q47 0 94 76l113 -91q-78 -160 -199 -159q-61 0 -136 42t-91 42q-47 0 -97 -78z" />
<glyph unicode="&#x2000;" horiz-adv-x="984" />
<glyph unicode="&#x2001;" horiz-adv-x="1968" />
<glyph unicode="&#x2002;" horiz-adv-x="984" />
<glyph unicode="&#x2003;" horiz-adv-x="1968" />
<glyph unicode="&#x2004;" horiz-adv-x="656" />
<glyph unicode="&#x2005;" horiz-adv-x="492" />
<glyph unicode="&#x2006;" horiz-adv-x="328" />
<glyph unicode="&#x2007;" horiz-adv-x="328" />
<glyph unicode="&#x2008;" horiz-adv-x="246" />
<glyph unicode="&#x2009;" horiz-adv-x="393" />
<glyph unicode="&#x200a;" horiz-adv-x="109" />
<glyph unicode="&#x2010;" horiz-adv-x="948" d="M133 436v221h682v-221h-682z" />
<glyph unicode="&#x2011;" horiz-adv-x="948" d="M133 436v221h682v-221h-682z" />
<glyph unicode="&#x2012;" horiz-adv-x="948" d="M133 436v221h682v-221h-682z" />
<glyph unicode="&#x2013;" horiz-adv-x="1024" d="M0 444v211h1024v-211h-1024z" />
<glyph unicode="&#x2014;" horiz-adv-x="2048" d="M0 444v211h2048v-211h-2048z" />
<glyph unicode="&#x2018;" horiz-adv-x="520" d="M96 1044q0 17 4 35l150 394l174 -48l-66 -415q-27 -100 -129 -101q-55 0 -94 40t-39 95z" />
<glyph unicode="&#x2019;" horiz-adv-x="516" d="M96 963l68 415q27 98 129 99q53 0 92 -40t39 -96q0 -16 -4 -32l-150 -394z" />
<glyph unicode="&#x201a;" horiz-adv-x="489" d="M92 -233l68 415q27 100 129 101q53 0 92 -40t39 -96q0 -16 -4 -34l-150 -394z" />
<glyph unicode="&#x201c;" horiz-adv-x="880" d="M88 1044q0 17 4 35l150 394l174 -48l-66 -415q-29 -100 -131 -101q-53 0 -92 40t-39 95zM457 1044q0 17 4 35l149 394l174 -48l-65 -415q-29 -100 -131 -101q-53 0 -92 40t-39 95z" />
<glyph unicode="&#x201d;" horiz-adv-x="880" d="M92 963l68 415q27 98 129 99q53 0 92 -40t39 -96q0 -16 -4 -32l-150 -394zM461 963l67 415q27 98 129 99q53 0 92 -40t39 -96q0 -16 -4 -32l-149 -394z" />
<glyph unicode="&#x201e;" horiz-adv-x="880" d="M92 -233l68 415q27 100 129 101q53 0 92 -40t39 -96q0 -16 -4 -34l-150 -394zM461 -233l67 415q27 100 129 101q53 0 92 -40t39 -96q0 -16 -4 -34l-149 -394z" />
<glyph unicode="&#x2022;" horiz-adv-x="1028" d="M205 547q0 129 91 219t218 90t218 -90t91 -219q0 -127 -91 -217t-218 -90t-218 90t-91 217z" />
<glyph unicode="&#x2026;" horiz-adv-x="1861" d="M188 131q0 61 42 105.5t100 44.5q57 0 99 -44.5t42 -105.5q0 -59 -42 -103t-99 -44t-99.5 44t-42.5 103zM788 131q0 61 42 105.5t100 44.5q57 0 100 -44.5t43 -105.5q0 -59 -43 -103t-100 -44t-99.5 44t-42.5 103zM1389 131q0 61 42 105.5t99 44.5t100 -44.5t43 -105.5 q0 -59 -43 -103t-100 -44t-99 44t-42 103z" />
<glyph unicode="&#x202f;" horiz-adv-x="393" />
<glyph unicode="&#x2039;" horiz-adv-x="909" d="M188 543l273 391h260l-275 -391l275 -398h-260z" />
<glyph unicode="&#x203a;" horiz-adv-x="909" d="M188 145l275 398l-275 391h261l272 -391l-272 -398h-261z" />
<glyph unicode="&#x205f;" horiz-adv-x="492" />
<glyph unicode="&#x2122;" horiz-adv-x="1640" d="M195 1298v119h524v-119h-199v-540h-131v540h-194zM707 758l69 659h164l139 -403l133 403h177l57 -659h-129l-43 442l-41 -139l-88 -244h-131l-90 244l-43 139l-11 -139l-28 -303h-135z" />
<glyph unicode="&#xe000;" horiz-adv-x="1105" d="M0 0v1106h1106v-1106h-1106z" />
</font>
</defs>
</svg>
