<?xml version="1.0" standalone="no"?>
<!DOCTYPE svg PUBLIC "-//W3C//DTD SVG 1.1//EN" "http://www.w3.org/Graphics/SVG/1.1/DTD/svg11.dtd" >
<svg xmlns="http://www.w3.org/2000/svg">
<metadata></metadata>
<defs>
<font id="alwynthin" horiz-adv-x="632" >
<font-face units-per-em="2048" ascent="1638" descent="-410" />
<missing-glyph horiz-adv-x="430" />
<glyph horiz-adv-x="2048" />
<glyph horiz-adv-x="2048" />
<glyph unicode="&#xd;" />
<glyph unicode=" "  horiz-adv-x="430" />
<glyph unicode="&#x09;" horiz-adv-x="430" />
<glyph unicode="&#xa0;" horiz-adv-x="430" />
<glyph unicode="!" horiz-adv-x="667" d="M256 57q0 31 22.5 54.5t53.5 23.5t52.5 -23.5t21.5 -54.5t-22 -52t-52 -21q-31 0 -53.5 21.5t-22.5 51.5zM279 1460h116l-14 -1042l-88 -17z" />
<glyph unicode="&#x22;" horiz-adv-x="712" d="M229 1018v399h76v-399h-76zM408 1018v399h75v-399h-75z" />
<glyph unicode="#" horiz-adv-x="1298" d="M225 627v82h193v305h-193v82h193v319h82v-319h299v319h82v-319h192v-82h-192v-305h192v-82h-192v-320h-82v320h-299v-320h-82v320h-193zM500 709h299v305h-299v-305z" />
<glyph unicode="$" horiz-adv-x="1187" d="M193 51l16 86q158 -51 289 -65l57 651q-170 70 -238 131q-109 96 -108 248q0 176 111.5 275.5t300.5 99.5l8 94l78 -6l-9 -92q106 -12 238 -56l-21 -78q-104 39 -225 52l-53 -613q174 -74 246 -139q113 -100 112 -260q0 -180 -113.5 -286.5t-314.5 -108.5l-8 -93l-76 7 l9 90q-125 12 -299 63zM295 1102q0 -109 80 -182q57 -54 188 -109l51 582q-156 -2 -237.5 -79t-81.5 -212zM575 68q164 2 248 86t84 225q0 117 -84 196q-59 56 -194 115z" />
<glyph unicode="%" horiz-adv-x="1787" d="M215 1096q0 143 85 240.5t224 97.5t224.5 -97.5t85.5 -240.5t-84 -238q-86 -100 -226 -100q-139 0 -225 100q-84 94 -84 238zM281 1096q0 -115 61 -193q68 -84 182 -84q115 0 183 84q61 78 61 193t-61 192q-68 84 -183 84t-179 -81t-64 -195zM651 2l410 1413h76 l-410 -1413h-76zM954 322q0 143 85 239t225 96q139 0 224 -96t85 -239t-84 -238q-86 -100 -225 -100t-226 100q-84 94 -84 238zM1020 322q0 -115 61 -193q68 -86 183 -86t182 86q61 78 61 193t-61 192q-68 84 -182 84q-115 0 -179.5 -81t-64.5 -195z" />
<glyph unicode="&#x26;" horiz-adv-x="1400" d="M236 391q0 283 266 379v2q-115 45 -172 150q-47 84 -47 184q0 168 110.5 268.5t298.5 100.5q96 0 199 -21l-12 -80q-90 16 -187 17q-160 0 -245 -78t-85 -207q0 -111 76 -201q82 -100 203 -100h293l16 194h60v-194h192v-78l-192 -6v-678q-154 -59 -365 -59 q-184 0 -301 120q-109 117 -108 287zM322 391q0 -131 77 -221q88 -104 244 -104q150 -1 291 38v617h-293q-145 0 -232 -96.5t-87 -233.5z" />
<glyph unicode="'" horiz-adv-x="534" d="M229 1018v399h76v-399h-76z" />
<glyph unicode="(" horiz-adv-x="735" d="M225 -8v1229q0 367 326 366v-82q-244 0 -244 -284v-1229q0 -289 244 -289v-80q-326 0 -326 369z" />
<glyph unicode=")" horiz-adv-x="735" d="M225 -297q244 0 244 289v1229q0 285 -244 284v82q326 0 326 -366v-1229q0 -369 -326 -369v80z" />
<glyph unicode="*" horiz-adv-x="1103" d="M219 905l279 148l-279 147l39 68l266 -168l-10 315h78l-12 -315l266 168l39 -68l-277 -147l277 -148l-39 -67l-266 168v-2l12 -314h-78l10 316l-266 -168z" />
<glyph unicode="+" horiz-adv-x="1202" d="M219 508v84h342v358h82v-358h340v-84h-340v-361h-82v361h-342z" />
<glyph unicode="," horiz-adv-x="423" d="M100 -233l60 319q8 51 63 51q25 0 44.5 -19.5t19.5 -45.5q0 -11 -2 -19l-109 -305z" />
<glyph unicode="-" horiz-adv-x="919" d="M164 492v100h592v-100h-592z" />
<glyph unicode="." horiz-adv-x="382" d="M117 59q0 31 21.5 54.5t51.5 23.5q31 0 53.5 -23.5t22.5 -54.5q0 -33 -22.5 -54t-53.5 -21t-52 21.5t-21 53.5z" />
<glyph unicode="/" horiz-adv-x="776" d="M143 0l416 1614h74l-418 -1614h-72z" />
<glyph unicode="0" horiz-adv-x="1187" d="M139 492v436q0 227 122 366.5t333 139.5q209 0 332 -142.5t123 -363.5v-436q0 -227 -122 -367.5t-333 -140.5q-209 0 -332 143t-123 365zM223 492q0 -170 78 -283q96 -143 293 -143q195 0 293 143q78 115 78 283v436q0 168 -78 280q-98 141 -293 142q-197 0 -293 -142 q-78 -111 -78 -280v-436z" />
<glyph unicode="1" horiz-adv-x="1187" d="M205 1268l360 149h92v-1335l297 -14v-68h-714v84h333v1253l-340 -141z" />
<glyph unicode="2" horiz-adv-x="1187" d="M227 0v109q0 313 273 505q254 178 311 240q88 92 88 225q0 117 -84 195t-229 78q-129 0 -291 -66l-27 76q180 72 318 72q170 0 283.5 -102.5t113.5 -252.5q0 -160 -121 -282q-39 -41 -289 -224q-135 -100 -192 -194q-68 -117 -68 -295h676v-51q0 -33 -31 -33h-731z" />
<glyph unicode="3" horiz-adv-x="1185" d="M254 39l20 78q121 -49 279 -49q166 0 267.5 86t101.5 231q0 166 -129 260q-106 76 -242 76h-74v78h35q147 0 257 76.5t110 205.5q0 121 -86 196t-236 75q-123 0 -256 -47l-25 75q147 55 281 56q184 0 296 -95.5t112 -259.5q0 -92 -52 -174q-63 -96 -182 -141v-2 q277 -125 277 -379q0 -170 -117 -281q-125 -119 -338 -118q-180 0 -299 53z" />
<glyph unicode="4" horiz-adv-x="1183" d="M152 496q0 20 4 43l139 878h84l-143 -901q-14 -92 79 -92h408v719l82 -15v-704h287l-19 -84h-268v-340h-82v340h-408q-66 0 -108 33q-55 41 -55 123z" />
<glyph unicode="5" horiz-adv-x="1187" d="M195 55l20 80q209 -70 334 -69q176 0 285 112q100 106 100 266q0 154 -82 246q-92 102 -272 103q-162 0 -285 -58l-45 74v608h694l-12 -82h-600v-506q166 39 248 39q209 0 325.5 -115.5t116.5 -310.5q0 -207 -137 -332.5t-342 -125.5q-145 0 -348 71z" />
<glyph unicode="6" horiz-adv-x="1187" d="M164 432v553q0 193 112 315q121 133 336 134q147 0 293 -54l-16 -77q-168 49 -277 49q-190 0 -284 -121q-78 -98 -78 -246v-199q170 106 338 107q186 0 307 -117q129 -125 129 -344q0 -211 -127 -334q-117 -115 -303 -114q-184 0 -303 114q-127 123 -127 334zM250 430 q0 -160 84 -258q92 -106 260 -106q170 0 260 108q84 98 84 258q0 168 -86 268q-92 111 -264 111q-176 0 -338 -109v-272z" />
<glyph unicode="7" horiz-adv-x="1187" d="M182 1335v82h799l33 -88l-469 -1329h-90l473 1335h-746z" />
<glyph unicode="8" horiz-adv-x="1187" d="M154 389q0 266 243 356q-197 104 -196 324q0 168 121 270q113 94 272 95q162 0 272 -95q121 -102 121 -270q0 -217 -196 -321q243 -95 243 -359q0 -197 -137 -307q-121 -98 -303 -98q-178 0 -301 98q-139 111 -139 307zM238 389q0 -156 114 -246q100 -78 242 -77 q141 0 242 77q114 90 114 246q0 154 -114 238q-98 72 -242 71q-143 0 -242 -71q-115 -84 -114 -238zM285 1069q0 -135 100 -217q88 -72 209 -72q119 0 209 74q100 82 100 215t-96 211q-86 72 -213 72t-213 -72q-96 -78 -96 -211z" />
<glyph unicode="9" horiz-adv-x="1187" d="M164 985q0 211 127 334q117 115 303 115q184 0 303 -115q127 -123 127 -334v-553q0 -193 -113 -315q-121 -133 -336 -133q-145 0 -292 53l16 78q168 -49 276 -49q190 0 287 120q78 98 78 246v199q-172 -106 -340 -107q-186 0 -307 117q-129 125 -129 344zM250 985 q0 -168 86 -270q92 -109 264 -109q178 0 340 109v272q0 160 -86 258q-92 106 -260 107q-170 0 -260 -109q-84 -98 -84 -258z" />
<glyph unicode=":" horiz-adv-x="382" d="M117 59q0 31 21.5 54.5t51.5 23.5q31 0 53.5 -23.5t22.5 -54.5t-22.5 -53t-53.5 -22t-52 22.5t-21 52.5zM117 731q0 31 21.5 53.5t51.5 22.5q31 0 53.5 -22.5t22.5 -53.5t-22.5 -54.5t-53.5 -23.5t-52 22.5t-21 55.5z" />
<glyph unicode=";" horiz-adv-x="432" d="M117 -233l59 319q8 51 64 51q25 0 44 -19.5t19 -45.5q0 -11 -2 -19l-108 -305zM162 731q0 31 21.5 53.5t52.5 22.5t53 -22.5t22 -53.5t-22.5 -53.5t-52.5 -22.5q-31 0 -52.5 22.5t-21.5 53.5z" />
<glyph unicode="&#x3c;" horiz-adv-x="1234" d="M219 516v68l760 430l37 -70l-694 -393l694 -395l-37 -70z" />
<glyph unicode="=" horiz-adv-x="1193" d="M219 324v88h756v-88h-756zM219 686v90h756v-90h-756z" />
<glyph unicode="&#x3e;" horiz-adv-x="1234" d="M219 156l694 395l-694 393l37 70l760 -430v-68l-760 -430z" />
<glyph unicode="?" horiz-adv-x="1134" d="M266 1397q145 78 277 78q154 0 243 -97q82 -88 82 -215q0 -115 -77 -223q-72 -100 -144 -201q-78 -141 -78 -327l-86 -11q0 203 78 351q16 29 148 204q78 106 77 207q0 94 -63 160q-70 68 -180 68q-125 0 -242 -68zM451 57q0 31 22.5 54.5t52.5 23.5q31 0 52.5 -23.5 t21.5 -54.5t-21.5 -52t-52.5 -21t-53 21.5t-22 51.5z" />
<glyph unicode="@" horiz-adv-x="1859" d="M219 727q0 324 209 528q201 199 502 199t502 -199q208 -204 208 -528q0 -219 -98 -387h-375l-10 61q-135 -74 -246 -73q-137 0 -218 83t-81 222v190q0 143 80 223t219 80q88 0 230 -55v39h80v-700h270q70 135 70 317q0 293 -185 473q-178 172 -446 172t-445 -172 q-184 -180 -184 -473q0 -297 184 -475q174 -170 445 -170q145 0 270 53l14 -82q-135 -53 -284 -53q-301 0 -502 197q-209 205 -209 530zM692 633q0 -227 219 -227q107 0 230 63v524q-129 55 -230 56q-219 0 -219 -226v-190z" />
<glyph unicode="A" horiz-adv-x="1232" d="M51 0l340 1264q57 211 223 211q170 0 228 -211l340 -1264h-84l-125 467h-711l-129 -467h-82zM283 549h665l-182 692q-39 152 -152 152q-106 0 -147 -152z" />
<glyph unicode="B" horiz-adv-x="1161" d="M186 0v1395q205 80 410 80q188 0 301 -113q104 -106 104 -268q0 -205 -221 -316v-2q279 -103 279 -375q0 -174 -101 -280q-111 -121 -315 -121h-457zM270 82h373q326 0 326 319q0 129 -86 224q-94 100 -246 100h-367v-643zM270 807h318q135 0 229 85t94 202 q0 129 -71 209q-82 90 -244 90q-172 0 -326 -58v-528z" />
<glyph unicode="C" horiz-adv-x="1171" d="M154 479v500q0 229 116 358q123 137 361 138q213 0 409 -56l-16 -82q-43 14 -150 33q-141 23 -243 23q-393 0 -393 -416v-496q0 -415 389 -415h2q209 0 393 57l18 -78q-219 -61 -409 -61q-238 0 -361 137q-117 129 -116 358z" />
<glyph unicode="D" horiz-adv-x="1300" d="M186 0v1458h463q500 0 500 -463v-532q0 -463 -500 -463h-463zM272 84h377h2q414 0 414 405v482q0 405 -414 405h-2h-377v-1292z" />
<glyph unicode="E" horiz-adv-x="1060" d="M186 344v770q0 344 377 344h369v-82h-369q-291 0 -291 -262v-326h627v-83h-627v-361q0 -262 291 -262h377v-49q0 -33 -31 -33h-346q-188 0 -282.5 92t-94.5 252z" />
<glyph unicode="F" horiz-adv-x="1007" d="M186 0v1458h732v-82h-648v-610h584v-86h-584v-680h-84z" />
<glyph unicode="G" horiz-adv-x="1234" d="M154 477v502q0 496 508 496q213 0 387 -52l-17 -82q-182 51 -370 52q-424 0 -424 -416v-500q0 -172 86 -276q109 -135 338 -135q201 0 364 53v522l78 16v-598q-251 -75 -437 -75h-5q-244 0 -379 137q-129 131 -129 356z" />
<glyph unicode="H" horiz-adv-x="1323" d="M186 0v1458h86v-670h783v670h84v-1425q0 -33 -31 -33h-53v705h-783v-705h-86z" />
<glyph unicode="I" horiz-adv-x="434" d="M174 0v1458h86v-1425q0 -33 -31 -33h-55z" />
<glyph unicode="J" horiz-adv-x="956" d="M88 33l16 86q168 -51 275 -51q338 0 338 370v1022h86v-1022q0 -452 -422 -452h-2q-129 0 -291 47z" />
<glyph unicode="K" horiz-adv-x="1177" d="M186 0v1458h86v-682l324 21l293 661h90l-295 -665q152 -25 209 -203l192 -590h-86l-184 565q-25 74 -61 107q-47 41 -140 41h-30l-312 -21v-659q0 -33 -30 -33h-56z" />
<glyph unicode="L" horiz-adv-x="1101" d="M186 0v1458h86v-1376h697v-49q0 -33 -31 -33h-752z" />
<glyph unicode="M" horiz-adv-x="1730" d="M113 0l200 1458h129l330 -1159q31 -109 92 -109q63 0 94 109l330 1159h127l203 -1458h-88l-189 1350l-303 -1071q-47 -170 -174 -170q-123 0 -172 170l-305 1071l-186 -1350h-88z" />
<glyph unicode="N" horiz-adv-x="1290" d="M186 0v1458h84q96 0 143.5 -43t104.5 -172l502 -1132v1347h84v-1458h-127l-533 1210q-49 111 -79.5 138.5t-92.5 27.5v-1376h-86z" />
<glyph unicode="O" horiz-adv-x="1347" d="M154 518v420q0 236 141 386.5t379 150.5t383 -158q137 -152 137 -379v-420q0 -233 -137 -381q-142 -153 -380 -153h-3q-238 0 -381 157q-139 147 -139 377zM238 518q0 -176 96 -299q118 -153 337 -153h3q219 0 338 153q98 125 98 299v420q0 176 -98 303 q-119 152 -338 152q-221 0 -340 -152q-96 -125 -96 -303v-420z" />
<glyph unicode="P" horiz-adv-x="1085" d="M186 0v1458h377q209 0 330 -129q113 -121 113 -309t-113 -309q-121 -131 -330 -131h-293v-580h-84zM270 666h293q182 0 277 114q80 97 80 240q0 147 -80 244q-93 112 -274 112h-3h-293v-710z" />
<glyph unicode="Q" horiz-adv-x="1347" d="M154 518v420q0 236 141 386.5t379 150.5t383 -158q137 -150 137 -379v-420q0 -193 -98.5 -333t-272.5 -183l127 -350l-55 -21q-6 -2 -10 -2q-23 0 -29 21l-121 338q-35 -4 -61 -4q-238 0 -381 157q-139 150 -139 377zM240 518q0 -176 96 -299q116 -151 335 -151h3 q219 0 338 151q98 125 98 299v420q0 176 -98 303q-119 152 -338 152q-221 0 -338 -152q-96 -125 -96 -303v-420z" />
<glyph unicode="R" horiz-adv-x="1161" d="M186 0v1403q215 72 422 72q199 0 314 -134q106 -121 106 -311q0 -135 -76 -242q-84 -117 -233 -155l94 -221l166 -412h-98l-246 616h-25q-16 -2 -26 -2h-314v-614h-84zM270 698h314q168 0 264 101q90 92 90 231q0 147 -74 246q-88 117 -256 117q-125 0 -338 -56v-639z " />
<glyph unicode="S" horiz-adv-x="1028" d="M113 51l16 86q206 -69 350 -69h4q172 0 258 84t86 229q0 164 -180 264q-168 78 -338 156q-180 111 -180 301q0 176 111.5 275.5t302.5 99.5q135 0 313 -60l-20 -78q-152 55 -293 56q-158 0 -243 -77t-85 -216q0 -156 182 -250l336 -160q182 -114 182 -311 q0 -182 -114.5 -288.5t-317.5 -106.5q-143 0 -370 65z" />
<glyph unicode="T" horiz-adv-x="1142" d="M113 1376v82h919v-82h-420v-1376h-84v1376h-415z" />
<glyph unicode="U" horiz-adv-x="1300" d="M154 530v928h84v-966q0 -178 98 -295q111 -131 309 -131q197 0 309 131q98 117 99 295v966h86v-928q0 -262 -128 -404t-366 -142q-233 0 -362 142t-129 404z" />
<glyph unicode="V" horiz-adv-x="1224" d="M72 1458h86l456 -1370l457 1370h84l-485 -1458h-111z" />
<glyph unicode="W" horiz-adv-x="1734" d="M102 1458h88l263 -1337l241 1059q39 170 174 170t174 -170l242 -1061l262 1339h88l-280 -1458h-129l-269 1159q-25 109 -88 109t-88 -109l-268 -1159h-129z" />
<glyph unicode="X" horiz-adv-x="1206" d="M92 0l457 762l-399 696h104l350 -612l350 612h107l-402 -696l457 -762h-104l-408 684l-409 -684h-103z" />
<glyph unicode="Y" horiz-adv-x="1161" d="M102 1458h82l76 -397q33 -176 86 -250q76 -109 236 -109q162 0 237 109q51 74 84 250l74 397h82l-76 -414q-33 -180 -98 -272q-86 -123 -260 -147v-625h-90v623q-172 25 -259 149q-61 90 -96 272z" />
<glyph unicode="Z" horiz-adv-x="1114" d="M113 102l782 1274h-739l-9 82h816l18 -94l-782 -1282h802v-82h-876z" />
<glyph unicode="[" horiz-adv-x="712" d="M225 -377v1964h303v-80h-221v-1804h221v-80h-303z" />
<glyph unicode="\" horiz-adv-x="776" d="M143 1614h74l416 -1614h-72z" />
<glyph unicode="]" horiz-adv-x="712" d="M225 -297h221v1804h-221v80h303v-1964h-303v80z" />
<glyph unicode="^" horiz-adv-x="1216" d="M215 694l344 723h100l342 -723h-90l-303 654l-303 -654h-90z" />
<glyph unicode="_" horiz-adv-x="1021" d="M133 -106h756v-78h-756v78z" />
<glyph unicode="`" horiz-adv-x="929" d="M236 1374l45 96l413 -200l-32 -74z" />
<glyph unicode="a" horiz-adv-x="948" d="M80 297q0 137 100 213q94 74 254 74h305v110q0 305 -272 305q-121 0 -281 -47l-20 78q160 49 301 49q176 0 268 -96q86 -90 86 -256v-727h-57l-19 92q-43 -31 -127 -63q-117 -45 -208 -45q-147 0 -238.5 86t-91.5 227zM162 297q0 -104 68.5 -169t179.5 -65q134 1 329 107 v334h-299q-125 0 -198 -51q-80 -53 -80 -156z" />
<glyph unicode="b" horiz-adv-x="1110" d="M174 0v1532l82 16v-360q0 -61 -8 -215q188 106 340 106q174 0 280 -110q100 -104 101 -264v-347q0 -160 -101 -264q-105 -110 -277 -110h-3q-147 0 -338 114l-19 -98h-57zM256 174q207 -111 332 -111q143 0 221 87.5t78 234.5v287q0 152 -72 235q-78 92 -227 92 q-127 0 -332 -102v-723z" />
<glyph unicode="c" horiz-adv-x="985" d="M143 397v269q0 170 105 286q111 127 293 127q135 0 299 -51l-21 -78q-188 49 -278 49q-160 0 -244 -112q-72 -92 -72 -221v-269q0 -129 72 -223q84 -111 244 -111q111 0 290 48l21 -76q-164 -51 -311 -51q-182 0 -293 127q-104 117 -105 286z" />
<glyph unicode="d" horiz-adv-x="1110" d="M143 360v347q0 160 103.5 267t277.5 107q152 0 340 -106q-8 84 -8 215v344h82v-1532h-57l-19 98q-188 -114 -335 -114h-3q-174 0 -277.5 106.5t-103.5 267.5zM225 387q0 -150 78 -235.5t221 -85.5h2q125 0 330 110v723q-205 102 -332 102q-150 0 -224.5 -89t-74.5 -238 v-287z" />
<glyph unicode="e" horiz-adv-x="1064" d="M143 399v269q0 170 107.5 291.5t288.5 121.5q178 0 290 -129q104 -119 105 -284v-103q0 -33 -31 -33h-678v-133q0 -131 72 -223q83 -110 241 -110h3q123 0 323 57l19 -78q-178 -59 -342 -59q-182 0 -293 127q-104 117 -105 286zM225 612h627v56q0 131 -72 223 q-85 110 -238 110h-3q-154 0 -240 -110q-74 -92 -74 -223v-56z" />
<glyph unicode="f" horiz-adv-x="745" d="M82 995v68h184v180q0 143 75 225t210 82q65 0 133 -12l-12 -78q-57 10 -121 10q-203 0 -203 -241v-166h293v-80h-293v-950q0 -33 -31 -33h-51v983z" />
<glyph unicode="g" horiz-adv-x="1103" d="M150 375v330q0 160 102 267t276 107q125 0 340 -114l19 98h57v-1120q0 -152 -92 -246t-246 -94h-237l-13 80h254q113 0 182.5 74.5t69.5 185.5v161q-184 -104 -334 -104q-174 0 -278 111q-100 104 -100 264zM231 408q0 -326 297 -326q150 0 334 102v707 q-201 108 -332 108h-2q-143 0 -220 -87t-77 -234v-270z" />
<glyph unicode="h" horiz-adv-x="1089" d="M174 0v1532h82v-344q0 -129 -8 -219q207 110 344 110h2q166 0 258 -104q86 -100 86 -264v-678q0 -33 -31 -33h-51v686q0 313 -262 313q-137 0 -338 -106v-893h-82z" />
<glyph unicode="i" horiz-adv-x="495" d="M92 995v68h221v-1030q0 -33 -30 -33h-52v983zM201 1423q0 29 20.5 49.5t48.5 20.5q29 0 50.5 -20.5t21.5 -49.5q0 -31 -21.5 -51t-50.5 -20t-49 20.5t-20 50.5z" />
<glyph unicode="j" horiz-adv-x="548" d="M-12 -399l12 75q57 -10 92 -10q174 0 174 221v1096l-141 12v68h223v-1204q0 -123 -71.5 -198t-184.5 -75q-57 0 -104 15zM236 1423q0 29 20 49.5t49 20.5t50.5 -20.5t21.5 -49.5q0 -31 -21.5 -51t-50.5 -20t-49 20.5t-20 50.5z" />
<glyph unicode="k" horiz-adv-x="966" d="M174 0v1532h82v-954l274 73q86 23 121 107t123 305h84l-131 -328q-20 -51 -41 -78q-45 -59 -121 -84l320 -573h-90l-303 553l-236 -64v-456q0 -33 -31 -33h-51z" />
<glyph unicode="l" horiz-adv-x="436" d="M174 125v1405h82v-1395q0 -76 57 -90l-16 -63q-49 4 -86 42.5t-37 100.5z" />
<glyph unicode="m" horiz-adv-x="1722" d="M162 0v668q0 182 99 296.5t271 114.5q227 0 330 -231q98 231 330 231q172 0 270.5 -114.5t98.5 -296.5v-635q0 -33 -31 -33h-51v655q0 150 -62 238q-74 106 -225 106q-147 0 -225 -129q-63 -104 -64 -252v-618h-82v618q0 147 -63 252q-78 129 -226 129q-152 0 -225 -106 q-63 -88 -63 -238v-655h-82z" />
<glyph unicode="n" horiz-adv-x="1091" d="M174 0v1063h59l17 -96q207 112 342 112h2q166 0 258 -104q86 -100 86 -264v-678q0 -33 -31 -33h-51v686q0 313 -262 313q-141 0 -338 -104v-895h-82z" />
<glyph unicode="o" horiz-adv-x="1107" d="M143 397v269q0 180 111 296.5t299 116.5t301 -116.5t113 -296.5v-269q0 -178 -109 -293q-114 -120 -298 -120h-3q-188 0 -303 120q-111 115 -111 293zM225 416q0 -156 78 -248q88 -104 254 -105q164 0 250 105q78 92 78 248v233q0 156 -78 248q-88 102 -254 102 q-164 0 -250 -102q-78 -92 -78 -248v-233z" />
<glyph unicode="p" horiz-adv-x="1097" d="M162 -393v1458h57l19 -98q213 114 335 114h2q174 0 281 -110q100 -104 100 -264v-347q0 -162 -100 -266q-105 -108 -278 -108h-3q-131 0 -339 104q8 -88 8 -215v-268h-82zM244 170q188 -104 331 -104q150 0 228 90q71 85 71 237v287q0 147 -77.5 234t-221.5 87 q-129 0 -331 -108v-723z" />
<glyph unicode="q" horiz-adv-x="1097" d="M143 360v347q0 160 103.5 267t277.5 107q123 0 338 -114l19 98h57v-1460l-82 -17v287q0 129 8 215q-209 -104 -340 -104q-174 0 -277.5 106.5t-103.5 267.5zM225 393q0 -152 75 -239.5t224 -87.5q144 0 332 104v723q-201 108 -330 108h-2q-143 0 -221 -87t-78 -234v-287z " />
<glyph unicode="r" horiz-adv-x="675" d="M174 0v1063h57l19 -145q80 76 102 92q91 69 164 69h2q47 0 88 -6l-10 -80q-41 6 -76 6q-123 0 -264 -159v-807q0 -33 -31 -33h-51z" />
<glyph unicode="s" horiz-adv-x="874" d="M133 35l17 80q197 -51 266 -52q243 0 243 211q0 115 -131 185q-123 57 -245 114q-131 82 -131 226q0 131 85 205.5t228 74.5q106 0 223 -39l-18 -73q-112 32 -200 32h-5q-231 0 -232 -200q0 -109 132 -174q123 -55 245 -113q131 -82 131 -236q0 -135 -86 -213.5 t-239 -78.5q-111 0 -283 51z" />
<glyph unicode="t" horiz-adv-x="704" d="M55 985v80h156l14 360h68v-360h262v-80h-262v-700q0 -219 190 -219q51 0 107 10l8 -76q-68 -14 -115 -14q-133 0 -207 86q-66 76 -65 190v723h-156z" />
<glyph unicode="u" horiz-adv-x="1079" d="M160 352v678q0 33 30 33h52v-686q0 -313 262 -314q141 0 338 105v895h82v-1063h-60l-16 96q-207 -112 -342 -112h-2q-166 0 -255 102t-89 266z" />
<glyph unicode="v" horiz-adv-x="942" d="M61 1063h86l326 -969l322 969h88l-357 -1063h-106z" />
<glyph unicode="w" horiz-adv-x="1445" d="M82 1063h82l239 -963l248 875h135l254 -875l240 963h84l-258 -1063h-121l-264 891h-2l-264 -891h-115z" />
<glyph unicode="x" horiz-adv-x="919" d="M72 0l329 555l-309 508h98l261 -424l256 424h98l-305 -508l348 -555h-100l-297 475l-279 -475h-100z" />
<glyph unicode="y" horiz-adv-x="1009" d="M92 1063h84l62 -698q23 -285 239 -285q125 0 250 84l47 899h82l-59 -1139q-16 -321 -314 -321h-2h-182l-12 80h196q219 0 232 247l8 144q-121 -74 -246 -74q-295 0 -323 354z" />
<glyph unicode="z" horiz-adv-x="942" d="M123 98l590 885h-570v80h637l15 -94l-590 -889h614v-80h-680z" />
<glyph unicode="{" horiz-adv-x="835" d="M123 567v78q106 0 149 62q37 53 37 170v358q0 174 72 258q82 94 270 94v-82q-162 0 -217 -75q-43 -57 -43 -195v-358q0 -102 -35 -162q-31 -51 -110 -109q80 -57 110 -110q35 -59 35 -162v-354q0 -139 43 -197q55 -78 217 -78v-82q-188 0 -270 96q-74 84 -74 261v354 q0 117 -37 170q-41 63 -147 63z" />
<glyph unicode="|" horiz-adv-x="520" d="M219 -317v1904h82v-1904h-82z" />
<glyph unicode="}" horiz-adv-x="835" d="M184 -295q162 0 217 78q43 57 43 197v354q0 102 35 162q31 53 111 110q-80 57 -111 109q-35 59 -35 162v358q0 137 -43 195q-55 76 -217 75v82q188 0 271 -94q72 -84 71 -258v-358q0 -117 37 -170q43 -61 150 -62v-78q-106 0 -148 -63q-37 -53 -37 -170v-354 q0 -176 -73 -261q-82 -96 -271 -96v82z" />
<glyph unicode="~" horiz-adv-x="1247" d="M225 559q90 129 221 129q82 0 196 -96t165 -96q84 0 162 96l55 -45q-90 -129 -217 -129q-82 0 -195.5 96t-165.5 96q-98 0 -165 -96z" />
<glyph unicode="&#xa0;" />
<glyph unicode="&#xa1;" horiz-adv-x="667" d="M256 1178q0 31 21.5 52t52.5 21t53.5 -21t22.5 -52t-23 -54.5t-53 -23.5q-31 0 -52.5 23.5t-21.5 54.5zM266 -225l15 1042l88 17l14 -1059h-117z" />
<glyph unicode="&#xa2;" horiz-adv-x="1187" d="M231 393v269q0 170 105 286q111 127 293 127q4 0 57 -4l10 139l76 -6l-12 -141q92 -14 170 -39l-21 -78q-51 14 -155 37l-82 -924q88 6 248 47l20 -75q-143 -45 -274 -51l-13 -138l-75 6l12 132q-166 14 -264 139q-94 115 -95 274zM313 393q0 -123 64 -213 q78 -109 219 -121l82 934q-27 2 -49 2q-160 0 -244 -110q-72 -94 -72 -223v-269z" />
<glyph unicode="&#xa3;" horiz-adv-x="1187" d="M203 616v80h135v322q0 223 110.5 340t309.5 117q141 -1 282 -48l-22 -75q-119 41 -258 41q-338 0 -338 -392v-305h539v-80h-541l-37 -532h627v-51q0 -33 -31 -33h-674l35 616h-137z" />
<glyph unicode="&#xa4;" horiz-adv-x="1187" d="M139 559v82h152v180h-152v82h152v78q0 227 117 358q125 137 362 138q154 0 322 -43l-19 -80q-162 39 -303 39q-393 0 -393 -414v-76h614l-16 -82h-598v-180h614l-16 -82h-598v-76q0 -416 391 -415q145 0 305 41l21 -78q-154 -45 -324 -45q-238 0 -362 137 q-117 129 -117 358v78h-152z" />
<glyph unicode="&#xa5;" horiz-adv-x="1187" d="M135 1413h84l377 -725l373 725h86l-377 -751h235v-68h-272v-197h272v-65h-272v-332h-90v332h-272v65h272v197h-272v68h235z" />
<glyph unicode="&#xa6;" horiz-adv-x="520" d="M219 291h82v-610h-82v610zM219 977v610h82v-610h-82z" />
<glyph unicode="&#xa7;" horiz-adv-x="1079" d="M174 -221l14 84q168 -51 306 -51q293 0 292 258q0 135 -155 221q-145 70 -291 139q-156 98 -156 264q0 143 97 232q-61 76 -62 184q0 152 101.5 238t259.5 86q145 0 276 -45l-18 -80q-115 43 -258 43q-274 0 -275 -242q0 -129 156 -213q143 -72 289 -143 q155 -101 155 -271q0 -145 -88 -235q53 -74 53 -178q0 -156 -103 -249t-273 -93q-147 0 -320 51zM270 694q0 -102 88 -172q51 -37 196.5 -100.5t207.5 -114.5q59 65 59 176q0 104 -86 176q-53 43 -196.5 105.5t-200.5 105.5q-68 -61 -68 -176z" />
<glyph unicode="&#xa8;" horiz-adv-x="731" d="M123 1317q0 33 22.5 56.5t55.5 23.5t55.5 -23.5t22.5 -56.5t-23 -55.5t-55 -22.5q-33 0 -55.5 22.5t-22.5 55.5zM451 1317q0 33 23.5 56.5t55.5 23.5q33 0 55.5 -23.5t22.5 -56.5t-22.5 -55.5t-55.5 -22.5t-56 22.5t-23 55.5z" />
<glyph unicode="&#xa9;" horiz-adv-x="1757" d="M219 682q0 281 193.5 479.5t466.5 198.5q272 0 465.5 -198.5t193.5 -479.5t-193.5 -481.5t-465.5 -200.5t-466 200.5t-194 481.5zM297 682q0 -248 171 -425t411 -177t410.5 177t170.5 425t-171 424t-410 176q-240 0 -411 -176t-171 -424zM588 569v224q0 121 75.5 189.5 t198.5 68.5q94 0 197 -31l-21 -74q-111 29 -176 29q-190 0 -190 -182v-224q0 -180 190 -180q70 0 176 27l21 -72q-106 -31 -197 -31q-123 0 -198.5 69t-75.5 187z" />
<glyph unicode="&#xaa;" horiz-adv-x="972" d="M217 885q0 96 70.5 146t185.5 50h215v72q0 197 -190 197q-78 0 -203 -33l-19 63q123 35 222 35q258 0 258 -241v-492h-49l-13 57q-125 -70 -237 -69q-106 0 -173 59t-67 156zM287 885q0 -68 46 -109t124 -41q102 0 231 68v213h-215q-186 0 -186 -131z" />
<glyph unicode="&#xab;" horiz-adv-x="1171" d="M219 549l311 362h109l-311 -362l311 -365h-109zM532 549l312 362h108l-311 -362l311 -365h-108z" />
<glyph unicode="&#xac;" horiz-adv-x="1179" d="M219 512v80h742v-438h-82v358h-660z" />
<glyph unicode="&#xad;" horiz-adv-x="919" d="M164 492v100h592v-100h-592z" />
<glyph unicode="&#xae;" horiz-adv-x="1755" d="M219 682q0 281 193.5 479.5t466.5 198.5q272 0 464.5 -198.5t192.5 -479.5t-192.5 -481.5t-464.5 -200.5t-466 200.5t-194 481.5zM297 682q0 -248 171 -425t411 -177t410.5 177t170.5 425t-171 424t-410 176q-240 0 -411 -176t-171 -424zM639 311v701q156 41 242 41 q113 0 178 -66q59 -62 59 -158q0 -135 -139 -208l137 -310h-98l-131 291h-158v-291h-90zM729 676h152q151 -1 151 153q0 59 -35 101q-41 49 -116 49h-2q-47 0 -150 -25v-278z" />
<glyph unicode="&#xaf;" horiz-adv-x="657" d="M2 1237v104h653v-104h-653z" />
<glyph unicode="&#xb0;" horiz-adv-x="819" d="M190 1196q0 90 64.5 154.5t155.5 64.5q90 0 154.5 -64.5t64.5 -154.5t-64.5 -154.5t-154.5 -64.5t-155 64.5t-65 154.5zM246 1196q0 -68 48 -116t116 -48t115.5 48t47.5 116t-48 116t-115 48q-68 0 -116 -48t-48 -116z" />
<glyph unicode="&#xb1;" horiz-adv-x="1202" d="M219 43v70h764v-70h-764zM219 506v88h342v289h82v-289h340v-88h-340v-295h-82v295h-342z" />
<glyph unicode="&#xb2;" />
<glyph unicode="&#xb3;" />
<glyph unicode="&#xb4;" horiz-adv-x="745" d="M143 1311l414 200l45 -96l-426 -178z" />
<glyph unicode="&#xb6;" horiz-adv-x="1388" d="M225 1010q0 166 123 284.5t301 118.5h514v-1689h-84v1607h-323v-1607h-84v876q-193 0 -320 119t-127 291z" />
<glyph unicode="&#xb7;" horiz-adv-x="370" d="M109 563q0 31 21.5 55.5t51.5 24.5q31 0 53.5 -24.5t22.5 -55.5t-22.5 -52.5t-53.5 -21.5t-52 21.5t-21 52.5z" />
<glyph unicode="&#xb8;" horiz-adv-x="688" d="M205 -393l8 71q33 -4 63 -4q131 0 132 160v152h75v-168q0 -113 -65 -170q-53 -47 -139 -47q-18 0 -74 6z" />
<glyph unicode="&#xb9;" />
<glyph unicode="&#xba;" horiz-adv-x="1019" d="M217 954v181q0 123 79 202.5t212 79.5q135 0 215 -80t80 -202v-181q0 -123 -80 -202.5t-213 -79.5q-135 0 -214 79.5t-79 202.5zM285 967q0 -229 225 -230q113 0 172 68q53 60 53 162v155q0 102 -53 162q-59 68 -174 68q-223 0 -223 -230v-155z" />
<glyph unicode="&#xbb;" horiz-adv-x="1171" d="M219 184l311 365l-311 362h107l313 -362l-313 -365h-107zM532 184l312 365l-312 362h107l313 -362l-313 -365h-107z" />
<glyph unicode="&#xbc;" />
<glyph unicode="&#xbd;" />
<glyph unicode="&#xbe;" />
<glyph unicode="&#xbf;" horiz-adv-x="1134" d="M266 86q0 115 78 223q72 100 143 201q78 141 78 328l86 10q0 -203 -78 -350q-16 -29 -147 -205q-78 -106 -78 -207q0 -94 66.5 -161.5t177.5 -67.5q121 0 242 69l34 -73q-145 -78 -276 -78q-154 0 -244 96q-82 88 -82 215zM535 1190q0 31 22.5 53.5t52.5 22.5 q31 0 52.5 -22.5t21.5 -53.5t-21.5 -53.5t-52.5 -22.5t-53 22.5t-22 53.5z" />
<glyph unicode="&#xc0;" horiz-adv-x="1232" d="M51 0l340 1264q57 211 223 211q170 0 228 -211l340 -1264h-84l-125 467h-711l-129 -467h-82zM283 549h665l-182 692q-39 152 -152 152q-106 0 -147 -152zM399 1743l45 96l414 -201l-33 -73z" />
<glyph unicode="&#xc1;" horiz-adv-x="1232" d="M51 0l340 1264q57 211 223 211q170 0 228 -211l340 -1264h-84l-125 467h-711l-129 -467h-82zM283 549h665l-182 692q-39 152 -152 152q-106 0 -147 -152zM369 1638l413 201l45 -96l-426 -178z" />
<glyph unicode="&#xc2;" horiz-adv-x="1232" d="M51 0l340 1264q57 211 223 211q170 0 228 -211l340 -1264h-84l-125 467h-711l-129 -467h-82zM283 549h665l-182 692q-39 152 -152 152q-106 0 -147 -152zM324 1624l286 234l287 -234l-53 -61l-234 196l-235 -196z" />
<glyph unicode="&#xc3;" horiz-adv-x="1232" d="M51 0l340 1264q57 211 223 211q170 0 228 -211l340 -1264h-84l-125 467h-711l-129 -467h-82zM283 549h665l-182 692q-39 152 -152 152q-106 0 -147 -152zM348 1634q43 102 141 103q55 0 131 -42t105 -42q57 0 88 57l53 -41q-47 -100 -141 -100q-55 0 -131 42t-105 42 q-53 0 -88 -58z" />
<glyph unicode="&#xc4;" horiz-adv-x="1232" d="M51 0l340 1264q57 211 223 211q170 0 228 -211l340 -1264h-84l-125 467h-711l-129 -467h-82zM283 549h665l-182 692q-39 152 -152 152q-106 0 -147 -152zM354 1645q0 33 22.5 56t55.5 23t55.5 -23t22.5 -56t-22.5 -55.5t-55.5 -22.5t-55.5 22.5t-22.5 55.5zM682 1645 q0 33 23.5 56t56.5 23t55.5 -23t22.5 -56t-22.5 -55.5t-55.5 -22.5t-56.5 22.5t-23.5 55.5z" />
<glyph unicode="&#xc5;" horiz-adv-x="1232" d="M51 0l340 1264q57 211 223 211q170 0 228 -211l340 -1264h-84l-125 467h-711l-129 -467h-82zM283 549h665l-182 692q-39 152 -152 152q-106 0 -147 -152zM461 1714q0 63 44 106.5t105 43.5q63 0 106.5 -43.5t43.5 -106.5q0 -61 -43 -105t-107 -44q-61 0 -105 44t-44 105z M510 1714q0 -41 29.5 -70.5t70.5 -29.5q43 0 73 29.5t30 70.5q0 43 -30 73t-73 30q-41 0 -70.5 -30t-29.5 -73z" />
<glyph unicode="&#xc6;" horiz-adv-x="1765" d="M51 0l549 1249q92 209 264 209h770v-82h-614v-577h582v-86h-582v-357q0 -274 303 -274h322v-68q0 -14 -17 -14h-305q-193 0 -290 96.5t-97 259.5v111h-592l-207 -467h-86zM379 553h557v823h-72q-125 0 -194 -159z" />
<glyph unicode="&#xc7;" horiz-adv-x="1171" d="M154 477v500q0 229 116 358q123 137 361 138q213 0 409 -56l-16 -82q-43 14 -150 31q-141 25 -243 25q-393 0 -393 -416v-496q0 -416 391 -416q209 0 393 58l18 -78q-178 -51 -344 -59v-166q0 -113 -65 -170q-53 -47 -139 -47q-18 0 -74 6l8 74q33 -4 63 -5 q131 0 132 158v148q-231 2 -353 139q-115 129 -114 356z" />
<glyph unicode="&#xc8;" horiz-adv-x="1060" d="M186 344v770q0 344 377 344h369v-82h-369q-291 0 -291 -262v-326h627v-83h-627v-361q0 -262 291 -262h377v-70q0 -12 -16 -12h-361q-188 0 -282.5 92t-94.5 252zM338 1743l45 96l414 -201l-33 -73z" />
<glyph unicode="&#xc9;" horiz-adv-x="1060" d="M186 344v770q0 344 377 344h369v-82h-369q-291 0 -291 -262v-326h627v-83h-627v-361q0 -262 291 -262h377v-70q0 -12 -16 -12h-361q-188 0 -282.5 92t-94.5 252zM348 1638l414 201l45 -96l-426 -178z" />
<glyph unicode="&#xca;" horiz-adv-x="1060" d="M186 344v770q0 344 377 344h369v-82h-369q-291 0 -291 -262v-326h627v-83h-627v-361q0 -262 291 -262h377v-70q0 -12 -16 -12h-361q-188 0 -282.5 92t-94.5 252zM262 1624l287 234l287 -234l-54 -61l-233 196l-236 -196z" />
<glyph unicode="&#xcb;" horiz-adv-x="1060" d="M186 344v770q0 344 377 344h369v-82h-369q-291 0 -291 -262v-326h627v-83h-627v-361q0 -262 291 -262h377v-70q0 -12 -16 -12h-361q-188 0 -282.5 92t-94.5 252zM313 1645q0 33 22.5 56t55.5 23t55.5 -23t22.5 -56t-22.5 -55.5t-55.5 -22.5t-55.5 22.5t-22.5 55.5z M641 1645q0 33 23.5 56t56.5 23t55.5 -23t22.5 -56t-22.5 -55.5t-55.5 -22.5t-56.5 22.5t-23.5 55.5z" />
<glyph unicode="&#xcc;" horiz-adv-x="428" d="M8 1743l45 96l414 -201l-33 -73zM172 0v1458h84v-1425q0 -33 -31 -33h-53z" />
<glyph unicode="&#xcd;" horiz-adv-x="440" d="M-25 1638l416 201l45 -96l-426 -178zM172 0v1458h84v-1425q0 -33 -31 -33h-53z" />
<glyph unicode="&#xce;" horiz-adv-x="428" d="M-74 1624l289 234l287 -234l-53 -61l-234 196l-238 -196zM174 0v1458h84v-1425q0 -33 -31 -33h-53z" />
<glyph unicode="&#xcf;" horiz-adv-x="434" d="M-37 1645q0 33 22.5 56t55.5 23t55.5 -23t22.5 -56t-22.5 -55.5t-55.5 -22.5t-55.5 22.5t-22.5 55.5zM172 0v1458h86v-1425q0 -33 -31 -33h-55zM291 1645q0 33 23.5 56t56.5 23t55.5 -23t22.5 -56t-23 -55.5t-55 -22.5q-33 0 -56.5 22.5t-23.5 55.5z" />
<glyph unicode="&#xd0;" />
<glyph unicode="&#xd1;" horiz-adv-x="1290" d="M186 0v1458h84q96 0 143.5 -43t104.5 -172l502 -1132v1347h84v-1458h-127l-533 1210q-49 111 -79.5 138.5t-92.5 27.5v-1376h-86zM393 1634q43 102 142 103q55 0 130.5 -42t104.5 -42q57 0 88 57l53 -41q-47 -100 -141 -100q-55 0 -131 42t-104 42q-53 0 -89 -58z" />
<glyph unicode="&#xd2;" horiz-adv-x="1347" d="M154 516v420q0 236 141 386.5t379 150.5t383 -158q137 -152 137 -379v-420q0 -233 -137 -381q-143 -154 -383 -153q-238 0 -381 155q-139 150 -139 379zM238 516q0 -176 96 -301q119 -152 340 -152q219 0 338 152q98 127 98 301v420q0 176 -98 303q-119 152 -338 152 q-221 0 -340 -152q-96 -127 -96 -303v-420zM440 1743l45 96l414 -201l-33 -73z" />
<glyph unicode="&#xd3;" horiz-adv-x="1347" d="M154 518v420q0 236 141 386.5t379 150.5t383 -158q137 -152 137 -379v-420q0 -233 -137 -381q-143 -154 -383 -153q-238 0 -381 155q-139 150 -139 379zM238 518q0 -176 96 -301q119 -152 340 -151q219 0 338 151q98 125 98 301v420q0 176 -98 301q-119 154 -338 154 q-221 0 -340 -154q-96 -125 -96 -301v-420zM430 1640l414 201l45 -96l-426 -178z" />
<glyph unicode="&#xd4;" horiz-adv-x="1347" d="M154 518v420q0 236 141 386.5t379 150.5t383 -158q137 -152 137 -379v-420q0 -233 -137 -381q-143 -154 -383 -153q-238 0 -381 155q-139 150 -139 379zM238 518q0 -176 96 -301q119 -152 340 -151q219 0 338 151q98 127 98 301v420q0 176 -98 303q-119 152 -338 152 q-221 0 -340 -152q-96 -127 -96 -303v-420zM383 1626l287 234l286 -234l-53 -61l-233 196l-236 -196z" />
<glyph unicode="&#xd5;" horiz-adv-x="1347" d="M154 518v420q0 236 141 386.5t379 150.5t383 -158q137 -152 137 -379v-420q0 -233 -137 -381q-143 -154 -383 -153q-238 0 -381 155q-139 150 -139 379zM238 518q0 -176 96 -301q119 -152 340 -151q219 0 338 151q98 125 98 301v420q0 176 -98 301q-119 154 -338 154 q-221 0 -340 -154q-96 -125 -96 -301v-420zM430 1636q43 102 141 103q55 0 131 -42t105 -42q57 0 88 57l53 -41q-47 -100 -141 -100q-55 0 -131 42t-105 42q-53 0 -88 -58z" />
<glyph unicode="&#xd6;" horiz-adv-x="1347" d="M154 520v420q0 233 141 385t379 152t383 -160q137 -150 137 -377v-420q0 -236 -137 -383q-143 -152 -383 -151q-238 0 -381 155q-139 150 -139 379zM238 520q0 -176 96 -301q119 -152 340 -151q219 0 338 151q98 125 98 301v420q0 174 -98 301q-119 154 -338 154 q-221 0 -340 -154q-96 -125 -96 -301v-420zM418 1649q0 31 22.5 55.5t55.5 24.5t55 -24.5t22 -55.5q0 -33 -22.5 -55.5t-54.5 -22.5q-33 0 -55.5 22.5t-22.5 55.5zM745 1649q0 33 24 56.5t56 23.5q33 0 55.5 -24.5t22.5 -55.5q0 -33 -22.5 -55.5t-55.5 -22.5t-56.5 22.5 t-23.5 55.5z" />
<glyph unicode="&#xd7;" />
<glyph unicode="&#xd8;" horiz-adv-x="1347" d="M154 520v420q0 233 140 384t380 151q111 0 209 -39l55 155l72 -26l-58 -162q242 -145 242 -463v-420q0 -236 -139 -383q-143 -154 -381 -153q-113 0 -209 39l-55 -156l-72 27l57 163q-242 145 -241 463zM238 520q0 -256 186 -383l432 1223q-82 33 -182 33 q-219 0 -338 -152q-98 -125 -98 -301v-420zM492 100q84 -35 182 -34q221 0 340 153q96 125 96 301v420q0 260 -186 383z" />
<glyph unicode="&#xd9;" horiz-adv-x="1310" d="M164 530v928h84v-966q0 -178 98 -295q111 -131 309 -131q197 0 310 131q98 117 98 295v966h86v-928q0 -264 -128 -405t-366 -141q-233 0 -362 142t-129 404zM420 1745l45 96l414 -201l-33 -73z" />
<glyph unicode="&#xda;" horiz-adv-x="1310" d="M164 530v928h84v-966q0 -178 98 -295q111 -131 309 -131q197 0 310 131q98 117 98 295v966h86v-928q0 -264 -128 -405t-366 -141q-233 0 -362 142t-129 404zM410 1640l413 201l45 -96l-426 -178z" />
<glyph unicode="&#xdb;" horiz-adv-x="1310" d="M164 530v928h84v-966q0 -178 98 -295q111 -131 309 -131q197 0 310 131q98 117 98 295v966h86v-928q0 -264 -128 -405t-366 -141q-233 0 -362 142t-129 404zM385 1626l287 234l286 -234l-53 -61l-233 196l-236 -196z" />
<glyph unicode="&#xdc;" horiz-adv-x="1310" d="M164 532v928h84v-966q0 -180 98 -297q111 -129 309 -129q197 0 310 129q98 119 98 297v966h86v-928q0 -264 -128 -405t-366 -141q-233 0 -362 141t-129 405zM416 1649q0 31 22.5 55.5t55.5 24.5t55 -24.5t22 -55.5q0 -33 -22.5 -55.5t-54.5 -22.5q-33 0 -55.5 22.5 t-22.5 55.5zM743 1649q0 33 24 56.5t56 23.5q33 0 55.5 -24.5t22.5 -55.5q0 -33 -22.5 -55.5t-55.5 -22.5t-56.5 22.5t-23.5 55.5z" />
<glyph unicode="&#xdd;" />
<glyph unicode="&#xde;" />
<glyph unicode="&#xdf;" horiz-adv-x="1226" d="M219 0v1397q195 78 336 78q152 0 243 -83t91 -227q0 -90 -58 -161q-23 -29 -108 -99q-57 -47 -57 -82q0 -59 88 -127q141 -111 166 -135q88 -98 88 -225q0 -158 -99 -252q-104 -100 -291 -100q-76 0 -133 16l9 82q53 -14 124 -14q141 0 223.5 70.5t82.5 185.5 q0 117 -88 204q-82 63 -166 127q-88 72 -88 156q0 80 110.5 170t110.5 184q0 227 -248 228q-47 -2 -90 -7q-100 -12 -160 -43v-1343h-86z" />
<glyph unicode="&#xe0;" horiz-adv-x="948" d="M80 297q0 137 100 213q94 74 254 74h305v110q0 305 -272 305q-121 0 -281 -47l-20 78q160 49 301 49q176 0 268 -96q86 -90 86 -256v-727h-57l-19 92q-43 -31 -127 -63q-117 -45 -208 -45q-147 0 -238.5 86t-91.5 227zM162 297q0 -104 68.5 -169t179.5 -65q134 1 329 107 v334h-299q-125 0 -198 -51q-80 -53 -80 -156zM252 1374l45 96l414 -200l-33 -74z" />
<glyph unicode="&#xe1;" horiz-adv-x="948" d="M80 297q0 137 100 213q94 74 254 74h305v110q0 305 -272 305q-121 0 -281 -47l-20 78q160 49 301 49q176 0 268 -96q86 -90 86 -256v-727h-57l-19 92q-43 -31 -127 -63q-117 -45 -208 -45q-147 0 -238.5 86t-91.5 227zM162 297q0 -104 68.5 -169t179.5 -65q134 1 329 107 v334h-299q-125 0 -198 -51q-80 -53 -80 -156zM209 1311l414 200l45 -96l-426 -178z" />
<glyph unicode="&#xe2;" horiz-adv-x="948" d="M80 297q0 137 100 213q94 74 254 74h305v110q0 305 -272 305q-121 0 -281 -47l-20 78q160 49 301 49q176 0 268 -96q86 -90 86 -256v-727h-57l-19 92q-43 -31 -127 -63q-117 -45 -208 -45q-147 0 -238.5 86t-91.5 227zM162 297q0 -104 68.5 -169t179.5 -65q134 1 329 107 v334h-299q-125 0 -198 -51q-80 -53 -80 -156zM170 1300l287 234l286 -234l-53 -61l-233 197l-236 -197z" />
<glyph unicode="&#xe3;" horiz-adv-x="948" d="M80 297q0 137 100 213q94 74 254 74h305v110q0 305 -272 305q-121 0 -281 -47l-20 78q160 49 301 49q176 0 268 -96q86 -90 86 -256v-727h-57l-19 92q-43 -31 -127 -63q-117 -45 -208 -45q-147 0 -238.5 86t-91.5 227zM162 297q0 -104 68.5 -169t179.5 -65q134 1 329 107 v334h-299q-125 0 -198 -51q-80 -53 -80 -156zM205 1305q43 102 141 102q55 0 131 -42t105 -42q57 0 88 57l53 -41q-47 -100 -141 -100q-55 0 -131 42t-105 42q-53 0 -88 -57z" />
<glyph unicode="&#xe4;" horiz-adv-x="948" d="M80 297q0 137 100 213q94 74 254 74h305v110q0 305 -272 305q-121 0 -281 -47l-20 78q160 49 301 49q176 0 268 -96q86 -90 86 -256v-727h-57l-19 92q-43 -31 -127 -63q-117 -45 -208 -45q-147 0 -238.5 86t-91.5 227zM162 297q0 -104 68.5 -169t179.5 -65q134 1 329 107 v334h-299q-125 0 -198 -51q-80 -53 -80 -156zM193 1317q0 33 22.5 56.5t54.5 23.5q33 0 55.5 -23.5t22.5 -56.5t-22.5 -55.5t-55.5 -22.5t-55 22.5t-22 55.5zM520 1317q0 33 23.5 56.5t56.5 23.5t55.5 -23.5t22.5 -56.5t-22.5 -55.5t-55.5 -22.5t-56.5 22.5t-23.5 55.5z" />
<glyph unicode="&#xe5;" horiz-adv-x="948" d="M80 297q0 137 100 213q94 74 254 74h305v110q0 305 -272 305q-121 0 -281 -47l-20 78q160 49 301 49q176 0 268 -96q86 -90 86 -256v-727h-57l-19 92q-43 -31 -127 -63q-117 -45 -208 -45q-147 0 -238.5 86t-91.5 227zM162 297q0 -104 68.5 -169t179.5 -65q134 1 329 107 v334h-299q-125 0 -198 -51q-80 -53 -80 -156zM303 1389q0 63 44 106t106 43q63 0 106 -43t43 -106q0 -61 -43 -105.5t-106 -44.5q-61 0 -105.5 44t-44.5 106zM352 1389q0 -41 30 -71t71 -30q43 0 72.5 30t29.5 71q0 43 -29.5 72.5t-72.5 29.5q-41 0 -71 -29.5t-30 -72.5z " />
<glyph unicode="&#xe6;" horiz-adv-x="1660" d="M80 297q0 137 100 213q94 74 252 74h307v110q0 305 -272 305q-121 0 -281 -47l-20 78q160 49 301 49q254 0 328 -192q109 195 340 194q178 0 290 -127q104 -119 105 -286v-103q0 -33 -31 -33h-678v-133q0 -131 72 -223q84 -111 244 -110q123 0 323 57l19 -78 q-178 -59 -342 -59q-203 0 -316 153v-139h-57l-19 92q-43 -31 -127 -63q-117 -45 -208 -45q-147 0 -238.5 86t-91.5 227zM162 297q0 -104 68.5 -169t179.5 -65q134 1 329 107v334h-307q-270 0 -270 -207zM821 612h627v56q0 131 -72 223q-86 111 -241 110q-154 0 -240 -108 q-74 -94 -74 -225v-56z" />
<glyph unicode="&#xe7;" horiz-adv-x="985" d="M143 395v269q0 170 105 286q111 127 293 127q135 0 299 -51l-21 -78q-188 49 -278 49q-160 0 -244 -110q-72 -94 -72 -223v-269q0 -129 72 -221q84 -113 244 -113q111 0 290 48l21 -76q-129 -41 -260 -49v-166q0 -113 -66 -170q-53 -47 -139 -47q-18 0 -74 6l9 71 q33 -4 63 -4q131 0 131 160v148q-172 8 -276 135q-96 115 -97 278z" />
<glyph unicode="&#xe8;" horiz-adv-x="1064" d="M143 399v269q0 170 107.5 291.5t288.5 121.5q178 0 290 -129q104 -119 105 -284v-103q0 -33 -31 -33h-678v-133q0 -131 72 -223q84 -111 244 -110q123 0 323 57l19 -78q-178 -59 -342 -59q-182 0 -293 127q-104 117 -105 286zM225 612h627v56q0 131 -72 223 q-86 111 -241 110q-154 0 -240 -110q-74 -92 -74 -223v-56zM334 1378l45 97l414 -201l-33 -74z" />
<glyph unicode="&#xe9;" horiz-adv-x="1064" d="M143 399v269q0 170 107.5 291.5t288.5 121.5q178 0 290 -129q104 -119 105 -284v-103q0 -33 -31 -33h-678v-133q0 -131 72 -223q84 -111 244 -110q123 0 323 57l19 -78q-178 -59 -342 -59q-182 0 -293 127q-104 117 -105 286zM225 612h627v56q0 131 -72 223 q-86 111 -241 110q-154 0 -240 -110q-74 -92 -74 -223v-56zM274 1315l414 201l45 -97l-426 -178z" />
<glyph unicode="&#xea;" horiz-adv-x="1064" d="M143 399v269q0 170 107.5 291.5t288.5 121.5q178 0 290 -129q104 -119 105 -284v-103q0 -33 -31 -33h-678v-133q0 -131 72 -223q84 -111 244 -110q123 0 323 57l19 -78q-178 -59 -342 -59q-182 0 -293 127q-104 117 -105 286zM225 612h627v56q0 131 -72 223 q-86 111 -241 110q-154 0 -240 -110q-74 -92 -74 -223v-56zM248 1305l287 233l286 -233l-53 -62l-233 197l-236 -197z" />
<glyph unicode="&#xeb;" horiz-adv-x="1064" d="M143 397v269q0 172 105 288q111 125 291 125q178 0 290 -127q104 -119 105 -286v-103q0 -33 -31 -33h-678v-133q0 -131 72 -223q84 -111 244 -111q123 0 323 58l19 -78q-178 -59 -342 -59q-182 0 -293 127q-104 117 -105 286zM225 610h627v56q0 131 -72 223 q-86 111 -241 110q-154 0 -240 -108q-74 -94 -74 -225v-56zM291 1319q0 33 22.5 56.5t55.5 23.5t55 -23.5t22 -56.5t-22.5 -55.5t-54.5 -22.5q-33 0 -55.5 22.5t-22.5 55.5zM618 1319q0 33 24 56.5t56 23.5q33 0 55.5 -23.5t22.5 -56.5t-22.5 -55.5t-55.5 -22.5t-56.5 22.5 t-23.5 55.5z" />
<glyph unicode="&#xec;" horiz-adv-x="493" d="M20 1374l46 96l413 -200l-33 -74zM90 989v74h221v-1030q0 -33 -30 -33h-52v983z" />
<glyph unicode="&#xed;" horiz-adv-x="493" d="M-4 1311l414 200l45 -96l-426 -178zM92 989v74h221v-1030q0 -33 -30 -33h-52v983z" />
<glyph unicode="&#xee;" horiz-adv-x="493" d="M-39 1300l287 234l287 -234l-54 -61l-233 197l-236 -197zM92 989v74h221v-1030q0 -33 -30 -33h-52v983z" />
<glyph unicode="&#xef;" horiz-adv-x="493" d="M12 1317q0 33 22.5 56.5t55.5 23.5t55.5 -23.5t22.5 -56.5t-22.5 -55.5t-55.5 -22.5t-55.5 22.5t-22.5 55.5zM92 989v74h221v-1030q0 -33 -30 -33h-52v983zM340 1317q0 33 23.5 56.5t56.5 23.5t55.5 -23.5t22.5 -56.5t-22.5 -55.5t-55.5 -22.5t-56.5 22.5t-23.5 55.5z " />
<glyph unicode="&#xf0;" />
<glyph unicode="&#xf1;" horiz-adv-x="1091" d="M174 0v1063h59l17 -96q209 113 344 112q166 0 258 -104q86 -100 86 -264v-678q0 -33 -31 -33h-51v686q0 313 -262 313q-141 0 -338 -104v-895h-82zM297 1305q43 102 141 102q55 0 130 -42t106 -42q55 0 88 57l53 -41q-47 -100 -141 -100q-57 0 -132 42t-104 42 q-55 0 -88 -57z" />
<glyph unicode="&#xf2;" horiz-adv-x="1107" d="M143 399v269q0 178 111 295.5t299 117.5t301 -117.5t113 -295.5v-269q0 -180 -109 -295q-115 -119 -301 -118q-188 0 -301 116.5t-113 296.5zM225 418q0 -156 78 -250q88 -102 254 -102q164 0 250 102q78 94 78 250v233q0 154 -78 246q-88 104 -254 104q-164 0 -250 -104 q-78 -92 -78 -246v-233zM334 1378l45 97l414 -201l-33 -74z" />
<glyph unicode="&#xf3;" horiz-adv-x="1107" d="M143 399v269q0 178 111 295.5t299 117.5t301 -117.5t113 -295.5v-269q0 -180 -109 -295q-115 -119 -301 -118q-188 0 -301 116.5t-113 296.5zM225 418q0 -156 78 -250q88 -102 254 -102q164 0 250 102q78 94 78 250v233q0 154 -78 246q-88 104 -254 104q-164 0 -250 -104 q-78 -92 -78 -246v-233zM274 1315l414 201l45 -97l-426 -178z" />
<glyph unicode="&#xf4;" horiz-adv-x="1107" d="M143 399v269q0 178 111 295.5t299 117.5t301 -117.5t113 -295.5v-269q0 -180 -109 -295q-115 -119 -301 -118q-188 0 -301 116.5t-113 296.5zM225 418q0 -156 78 -250q88 -102 254 -102q164 0 250 102q78 94 78 250v233q0 154 -78 246q-88 104 -254 104q-164 0 -250 -104 q-78 -92 -78 -246v-233zM252 1305l287 233l286 -233l-53 -62l-233 197l-236 -197z" />
<glyph unicode="&#xf5;" horiz-adv-x="1107" d="M143 397v269q0 180 111 296.5t299 116.5t301 -116.5t113 -296.5v-269q0 -178 -109 -293q-115 -121 -301 -120q-188 0 -303 120q-111 115 -111 293zM225 416q0 -154 78 -248q88 -104 254 -105q164 0 250 105q78 94 78 248v233q0 156 -78 248q-88 102 -254 102 q-164 0 -250 -102q-78 -92 -78 -248v-233zM287 1307q43 102 141 102q55 0 131 -42t105 -42q57 0 88 57l53 -41q-47 -100 -141 -100q-55 0 -131 42t-105 42q-53 0 -88 -57z" />
<glyph unicode="&#xf6;" horiz-adv-x="1107" d="M143 397v269q0 180 111 296.5t299 116.5t301 -116.5t113 -296.5v-269q0 -178 -109 -293q-115 -121 -301 -120q-188 0 -303 120q-111 115 -111 293zM225 416q0 -156 78 -248q88 -104 254 -105q164 0 250 105q78 92 78 248v233q0 156 -78 248q-88 102 -254 102 q-164 0 -250 -102q-78 -92 -78 -248v-233zM295 1319q0 33 22.5 56.5t55.5 23.5t55.5 -23.5t22.5 -56.5t-22.5 -55.5t-55.5 -22.5t-55.5 22.5t-22.5 55.5zM623 1319q0 33 23.5 56.5t55.5 23.5q33 0 55.5 -23.5t22.5 -56.5t-22.5 -55.5t-55.5 -22.5t-56 22.5t-23 55.5z" />
<glyph unicode="&#xf7;" />
<glyph unicode="&#xf8;" horiz-adv-x="1110" d="M143 399v269q0 178 111 295.5t299 117.5q78 0 147 -22l48 133l71 -27l-49 -137q197 -111 197 -360v-269q0 -180 -109 -295q-115 -119 -301 -118q-78 0 -147 22l-45 -133l-74 27l47 137q-195 109 -195 360zM225 418q0 -215 140 -303l309 870q-53 16 -121 16 q-164 0 -250 -104q-78 -92 -78 -246v-233zM436 82q53 -16 121 -16q164 0 250 102q78 94 78 250v233q0 211 -142 301z" />
<glyph unicode="&#xf9;" horiz-adv-x="1079" d="M154 354v678q0 33 30 33h52v-686q0 -313 262 -313q141 0 338 104v895h82v-1063h-60l-16 90q-199 -106 -344 -106q-166 0 -258 104q-86 98 -86 264zM317 1378l45 97l414 -201l-33 -74z" />
<glyph unicode="&#xfa;" horiz-adv-x="1079" d="M154 352v678q0 33 30 33h52v-686q0 -313 262 -314q141 0 338 105v895h82v-1063h-60l-16 90q-199 -106 -344 -106q-166 0 -258 106q-86 98 -86 262zM274 1313l414 200l45 -96l-426 -178z" />
<glyph unicode="&#xfb;" horiz-adv-x="1079" d="M154 354v678q0 33 30 33h52v-686q0 -313 262 -313q141 0 338 104v895h82v-1063h-60l-16 90q-199 -106 -344 -106q-166 0 -258 104q-86 98 -86 264zM236 1305l286 233l287 -233l-53 -62l-234 197l-235 -197z" />
<glyph unicode="&#xfc;" horiz-adv-x="1079" d="M154 352v678q0 33 30 33h52v-686q0 -313 262 -314q141 0 338 105v895h82v-1063h-60l-16 90q-199 -106 -344 -106q-166 0 -255 102t-89 266zM291 1319q0 33 22.5 56.5t55.5 23.5t55 -23.5t22 -56.5t-22.5 -55.5t-54.5 -22.5q-33 0 -55.5 22.5t-22.5 55.5zM618 1319 q0 33 24 56.5t56 23.5q33 0 55.5 -23.5t22.5 -56.5t-22.5 -55.5t-55.5 -22.5t-56.5 22.5t-23.5 55.5z" />
<glyph unicode="&#xfd;" />
<glyph unicode="&#xfe;" />
<glyph unicode="&#xff;" horiz-adv-x="1030" d="M92 1063h84l60 -698q25 -285 262 -285q125 0 250 84l47 899h82l-60 -1137q-16 -324 -317 -323h-224l-10 82h236q223 0 233 245l6 144q-121 -74 -243 -74q-317 0 -346 354zM254 1317q0 33 22.5 56.5t55.5 23.5t55.5 -23.5t22.5 -56.5t-22.5 -55.5t-55.5 -22.5t-55.5 22.5 t-22.5 55.5zM582 1317q0 33 23.5 56.5t56.5 23.5t55 -23.5t22 -56.5t-22.5 -55.5t-54.5 -22.5q-33 0 -56.5 22.5t-23.5 55.5z" />
<glyph unicode="&#x152;" horiz-adv-x="1984" d="M154 518v420q0 236 141 386.5t379 150.5q307 0 448 -250q59 233 363 233h368v-82h-368q-291 0 -291 -262v-326h627v-83h-627v-361q0 -262 291 -262h377v-70q0 -12 -17 -12h-360q-301 0 -363 229q-137 -246 -448 -245q-238 0 -381 155q-139 150 -139 379zM238 518 q0 -176 96 -301q119 -152 340 -151q219 0 338 151q98 125 98 301v420q0 176 -98 301q-119 154 -338 154q-221 0 -340 -154q-96 -125 -96 -301v-420z" />
<glyph unicode="&#x153;" horiz-adv-x="1806" d="M143 397v269q0 180 111 296.5t299 116.5q270 0 373 -221q102 221 354 221q178 0 291 -127q104 -119 104 -286v-103q0 -33 -30 -33h-678v-133q0 -131 71 -223q84 -111 244 -111q123 0 324 58l18 -78q-178 -59 -342 -59q-254 0 -356 221q-102 -221 -369 -221 q-188 0 -303 120q-111 115 -111 293zM225 416q0 -156 78 -248q88 -104 254 -105q164 0 250 105q78 92 78 248v233q0 156 -78 248q-88 102 -254 102q-164 0 -250 -102q-78 -92 -78 -248v-233zM967 610h626v56q0 131 -71 223q-86 111 -242 110q-154 0 -240 -108 q-74 -94 -73 -225v-56z" />
<glyph unicode="&#x178;" horiz-adv-x="1161" d="M102 1458h82l76 -397q33 -176 86 -250q76 -109 236 -109q162 0 237 109q51 74 84 250l74 397h82l-76 -414q-33 -180 -98 -272q-86 -123 -260 -147v-625h-90v623q-172 25 -259 149q-61 90 -96 272zM334 1645q0 33 22.5 56t55.5 23t55 -23t22 -56t-22.5 -55.5t-54.5 -22.5 q-33 0 -55.5 22.5t-22.5 55.5zM662 1645q0 33 23.5 56t55.5 23q33 0 55.5 -23t22.5 -56t-22.5 -55.5t-55.5 -22.5t-56 22.5t-23 55.5z" />
<glyph unicode="&#x2c6;" horiz-adv-x="778" d="M102 1300l287 234l287 -234l-53 -61l-234 197l-235 -197z" />
<glyph unicode="&#x2dc;" horiz-adv-x="763" d="M123 1305q43 102 141 102q55 0 131 -42t105 -42q57 0 88 57l53 -41q-47 -100 -141 -100q-55 0 -131 42t-105 42q-53 0 -88 -57z" />
<glyph unicode="&#x2000;" horiz-adv-x="932" />
<glyph unicode="&#x2001;" horiz-adv-x="1864" />
<glyph unicode="&#x2002;" horiz-adv-x="932" />
<glyph unicode="&#x2003;" horiz-adv-x="1864" />
<glyph unicode="&#x2004;" horiz-adv-x="621" />
<glyph unicode="&#x2005;" horiz-adv-x="466" />
<glyph unicode="&#x2006;" horiz-adv-x="310" />
<glyph unicode="&#x2007;" horiz-adv-x="310" />
<glyph unicode="&#x2008;" horiz-adv-x="233" />
<glyph unicode="&#x2009;" horiz-adv-x="372" />
<glyph unicode="&#x200a;" horiz-adv-x="103" />
<glyph unicode="&#x2010;" horiz-adv-x="919" d="M164 492v100h592v-100h-592z" />
<glyph unicode="&#x2011;" horiz-adv-x="919" d="M164 492v100h592v-100h-592z" />
<glyph unicode="&#x2012;" horiz-adv-x="919" d="M164 492v100h592v-100h-592z" />
<glyph unicode="&#x2013;" horiz-adv-x="1024" d="M0 506v88h1024v-88h-1024z" />
<glyph unicode="&#x2014;" horiz-adv-x="2048" d="M0 506v88h2048v-88h-2048z" />
<glyph unicode="&#x2018;" horiz-adv-x="399" d="M106 1149q1 10 5 20l108 306l74 -21l-57 -319q-10 -49 -64 -50q-27 0 -46.5 19.5t-19.5 44.5z" />
<glyph unicode="&#x2019;" horiz-adv-x="399" d="M106 1104l60 319q8 51 63 52q25 0 44.5 -20.5t19.5 -45.5q0 -10 -2 -18l-109 -306z" />
<glyph unicode="&#x201a;" horiz-adv-x="403" d="M106 -233l60 319q8 51 63 51q25 0 44.5 -19.5t19.5 -45.5q0 -11 -2 -19l-109 -305z" />
<glyph unicode="&#x201c;" horiz-adv-x="645" d="M106 1149q1 10 5 20l108 306l74 -21l-57 -319q-10 -49 -64 -50q-27 0 -46.5 19.5t-19.5 44.5zM352 1149q0 10 4 20l109 306l74 -21l-58 -319q-10 -49 -63 -50q-27 0 -46.5 19.5t-19.5 44.5z" />
<glyph unicode="&#x201d;" horiz-adv-x="645" d="M106 1104l60 319q8 51 63 52q25 0 44.5 -20.5t19.5 -45.5q0 -10 -2 -18l-109 -306zM352 1104l60 319q8 51 63 52q25 0 44.5 -20.5t19.5 -45.5q0 -10 -2 -18l-109 -306z" />
<glyph unicode="&#x201e;" horiz-adv-x="645" d="M106 -233l60 319q8 51 63 51q25 0 44.5 -19.5t19.5 -45.5q0 -11 -2 -19l-109 -305zM352 -233l60 319q8 51 63 51q25 0 44.5 -19.5t19.5 -45.5q0 -11 -2 -19l-109 -305z" />
<glyph unicode="&#x2022;" horiz-adv-x="1087" d="M236 547q0 127 91 218t218 91t217 -90t90 -219t-90 -219t-217 -90t-218 91t-91 218z" />
<glyph unicode="&#x2026;" horiz-adv-x="1816" d="M219 59q0 31 22.5 54.5t53.5 23.5t52.5 -23.5t21.5 -54.5t-21.5 -53t-52.5 -22t-53.5 22.5t-22.5 52.5zM834 59q0 31 21.5 54.5t51.5 23.5q31 0 53.5 -23.5t22.5 -54.5t-22.5 -53t-53.5 -22t-52 22.5t-21 52.5zM1446 59q0 31 22.5 54.5t53.5 23.5t53 -23.5t22 -54.5 t-22.5 -53t-52.5 -22q-31 0 -53.5 22.5t-22.5 52.5z" />
<glyph unicode="&#x202f;" horiz-adv-x="372" />
<glyph unicode="&#x2039;" horiz-adv-x="858" d="M219 549l311 362h109l-311 -362l311 -365h-109z" />
<glyph unicode="&#x203a;" horiz-adv-x="858" d="M219 184l311 365l-311 362h107l313 -362l-313 -365h-107z" />
<glyph unicode="&#x205f;" horiz-adv-x="466" />
<glyph unicode="&#x2122;" horiz-adv-x="1716" d="M225 1346v67h496v-67h-213v-592h-76v592h-207zM774 754l66 659h125l170 -512l163 512h136l57 -659h-76l-57 592l-10 -48l-166 -479h-95l-169 479l-11 48l-2 -48l-53 -544h-78z" />
<glyph unicode="&#xe000;" horiz-adv-x="1064" d="M0 0v1065h1065v-1065h-1065z" />
</font>
</defs>
</svg>
